aoloffline
版主

[更 早] [欧美] [剧情] [WEB-1080P] [BT下载]守卫莱茵河 Watch.on.the.Rhine.1943.1080p.WEBRip.DD2.0.x264-SbR 10.8GB

-->

Watch.on.the.Rhine.1943.1080p.WEBRip.DD2.0.x264-SbR

◎译  名 守卫莱茵河

◎片  名 Watch on the Rhine

◎年  代 1943

◎产  地 美国

◎类  别 剧情

◎语  言 英语/德语

◎上映日期 1943-08-27

◎BT之家整理 http://www.btbtt.us/

◎片  长 114 分钟

◎导  演 赫尔曼·沙姆林 Herman Shumlin / 哈尔·莫尔 Hal Mohr

◎主  演 贝蒂·戴维斯 Bette Davis

      保罗·卢卡斯 Paul Lukas

      杰拉丁·菲茨杰拉德 Geraldine Fitzgerald

      露塞尔·沃特森 Lucile Watson

      比尤拉·邦蒂 Beulah Bondi

      乔治·库鲁里斯 George Coulouris

      唐纳德·伍兹 Donald Woods

      亨利·丹尼尔 Henry Daniell

      Eric Roberts

      唐纳德·布卡 Donald Buka

      安东尼·卡卢索 Anthony Caruso

      赫尔穆特·丹丁 Helmut Dantine

      克莱德·菲尔莫尔 Clyde Fillmore

      埃尔温·卡尔泽 Erwin Kalser

      库尔特·卡奇 Kurt Katch


◎简  介


  着名女编剧丽莉安.海儿曼的百老汇舞台剧搬上银幕,在二次世界大战期间生动地反映了德国纳粹间谍的阴影无所不在的恐怖感。保罗.卢卡斯饰演从德国逃到美国的反纳粹地下组织领袖,他和妻子蓓蒂.戴维丝可以在华盛顿的新环境中得到安全的生活,不料同样受到纳粹间谍的监视困扰。导演赫曼.沙姆林从心理层面来反映战时美国民众反法西斯的面貌,以下个动人的故事提醒观众“匪谍就在你身边",可以说是一部艺术性的政策片。曾获奥斯卡最佳男主角奖。


◎获奖情况


  第16届奥斯卡金像奖  (1944)

  最佳影片(提名)

  最佳男主角 保罗·卢卡斯

  最佳女配角(提名) 露塞尔·沃特森

  最佳编剧(提名) 达希尔·哈米特


Video
ID : 1
Format : AVC
Format/Info : Advanced Video Codec
Format profile : High@L4
Format settings : CABAC / 4 Ref Frames
Format settings, CABAC : Yes
Format settings, ReFrames : 4 frames
Codec ID : V_MPEG4/ISO/AVC
Duration : 1 h 51 min
Bit rate mode : Variable
Bit rate : 13.5 Mb/s
Maximum bit rate : 15.0 Mb/s
Width : 1 440 pixels
Height : 1 080 pixels
Display aspect ratio : 1.374
Original display aspect ratio : 4:3
Frame rate mode : Constant
Frame rate : 23.976 (24000/1001) FPS
Color space : YUV
Chroma subsampling : 4:2:0
Bit depth : 8 bits
Scan type : Progressive
Bits/(Pixel*Frame) : 0.362
Stream size : 10.5 GiB (97%)
Language : English
Default : Yes
Forced : No
Color range : Limited
Color primaries : BT.709
Transfer characteristics : BT.709
Matrix coefficients : BT.709

Audio
ID : 2
Format : E-AC-3
Format/Info : Enhanced Audio Coding 3
Codec ID : A_EAC3
Duration : 1 h 51 min
Bit rate mode : Constant
Bit rate : 224 kb/s
Channel(s) : 2 channels
Channel positions : Front: L R
Sampling rate : 48.0 kHz
Frame rate : 187.500 FPS (256 SPF)
Compression mode : Lossy
Stream size : 179 MiB (2%)
Language : English
Service kind : Complete Main
Default : Yes
Forced : No

Text #1
ID : 4
Format : UTF-8
Codec ID : S_TEXT/UTF8
Codec ID/Info : UTF-8 Plain Text
Duration : 1 h 49 min
Bit rate : 88 b/s
Count of elements : 1746
Stream size : 71.1 KiB (0%)
Language : English
Default : No
Forced : No

Text #2
ID : 5
Format : UTF-8
Codec ID : S_TEXT/UTF8
Codec ID/Info : UTF-8 Plain Text
Duration : 1 h 49 min
Bit rate : 90 b/s
Count of elements : 1813
Stream size : 72.6 KiB (0%)
Title : SDH
Language : English
Default : No
Forced : No

Menu
00:00:00.000 : en:Chapter 1
00:01:34.949 : en:Chapter 2
00:04:54.281 : en:Chapter 3
00:10:04.959 : en:Chapter 4
00:14:25.519 : en:Chapter 5
00:16:41.523 : en:Chapter 6
00:20:49.104 : en:Chapter 7
00:23:44.579 : en:Chapter 8
00:29:24.419 : en:Chapter 9
00:34:10.406 : en:Chapter 10
00:38:14.450 : en:Chapter 11
00:44:52.682 : en:Chapter 12
00:48:31.435 : en:Chapter 13
00:51:49.967 : en:Chapter 14
00:54:57.822 : en:Chapter 15
00:59:40.271 : en:Chapter 16
01:07:33.744 : en:Chapter 17
01:13:17.922 : en:Chapter 18
01:15:50.876 : en:Chapter 19
01:19:25.123 : en:Chapter 20
01:22:40.286 : en:Chapter 21
01:27:46.258 : en:Chapter 22
01:31:03.823 : en:Chapter 23
01:36:12.431 : en:Chapter 24
01:41:24.410 : en:Chapter 25
01:45:41.166 : en:Chapter 26
01:48:55.360 : en:Chapter 27




1 个附件 售价 大小 下载 时间

Watch.on.the.Rhine.1943.1080p.WEBRip.DD2.0.x264-SbR[btbtt.me].torrent 0 金币 54.84K 399 次 2月前

#1楼
发帖时间:2018-09-14 20:06:50   |   回复数:3
911degrees
隐世仙人♂
非常感谢,谢谢分享
2月前 #2楼
liyouchai
超凡入圣№
谢谢楼主分享资源
2月前 #3楼
blue23
隐世仙人♂
感谢楼主分享
2月前 #4楼
游客组