_KOOK
武林高手

[2008] [欧美] [恐怖] [BD-1080P] [BT下载]恐怖相亲.Bad Biology.2008.US.BluRay.1918x1080p.x264.DTS-KOOK.[中英双字] 6.72GB

-->

恐怖相亲.Bad Biology.2008.US.BluRay.1918x1080p.x264.DTS-KOOK.[中英双字] 6.72GB

无广告,无水印,

网上下的字幕是机翻,实在没发看。重新翻译,水平有限,勉强看

不定时做种,保证出种,请耐心等待.




※※※※※※※ 影片信息 ※※※※※※※


◎片   名 Bad Biology

◎译   名 恐怖相亲

◎年   代 2008

◎国   家 美国

◎类   别 恐怖 / 奇幻 / 情色

◎语   言 英语

◎上映日 期 2008-02-08 / 2010-01-26(美国)

◎字   幕 中英双字/简体字幕/繁体字幕/英文字幕

◎IMDB 评分  4.7/10 from 3541 users

◎豆瓣 评分  4.3/10 from 327 users

◎视频尺 寸  1918x1080p

◎片   长 1.24.15

◎导   演 弗兰克·亨南洛特

◎编   剧  Frank Henenlotter / R.A. Thorburn

◎主   演 Rachael Robbins / Jelena Jensen ... Shower Girl / Krista Ayne ... Elegant woman




 

◎简  介



  春暖花开,万物复苏,狗熊撒欢,是交配的好季节

    两个互不相识的年轻男女各自在寻求性的满足。

    一个是拥有7个阴蒂的美女,一个巨无霸阳具的小帅哥

    不幸的是他们最终相遇,如同一对烈火干柴,如胶投漆,上演了一出惊天地泣鬼神的情爱故事……






※※※※※※※ 参数信息 ※※※※※※※




General

Unique ID                      : 213637942233745906891801110249028794660 (0xA0B92BC8004647E0BEE06A3697953924)


Format                         : Matroska

Format version                 : Version 4 / Version 2

File size                      : 6.72 GiB

Duration                       : 1 h 24 min

Overall bit rate               : 11.4 Mb/s

Movie name                     : KOOK

Encoded date                   : UTC 2018-08-20 14:56:15

Writing application            : mkvmerge v9.4.2 ('So High') 64bit

Writing library                : libebml v1.3.4 + libmatroska v1.4.5

Attachments                    : 正式海报 美国.jpg / fzlbfw.ttf / fzlbjw.ttf


Video

ID                             : 1

Format                         : AVC

Format/Info                    : Advanced Video Codec

Format profile                 : Main@L4

Format settings, CABAC         : No

Format settings, ReFrames      : 2 frames

Codec ID                       : V_MPEG4/ISO/AVC

Duration                       : 1 h 24 min

Bit rate                       : 10 000 kb/s

Width                          : 1 918 pixels

Height                         : 1 080 pixels

Display aspect ratio           : 16:9

Frame rate mode                : Variable

Frame rate                     : 23.976 FPS

Color space                    : YUV

Chroma subsampling             : 4:2:0

Bit depth                      : 8 bits

Scan type                      : Progressive

Bits/(Pixel*Frame)             : 0.201

Stream size                    : 5.82 GiB (87%)

Writing library                : x264 core 112

Encoding settings              : cabac=0 / ref=1 / deblock=1:0:0 / analyse=0x1:0x111 / me=umh / subme=5 / psy=1 / psy_rd=0.00:0.00 / mixed_ref=0 / me_range=16 / chroma_me=1 / trellis=0 / 8x8dct=0 / cqm=0 / deadzone=21,11 / fast_pskip=0 / chroma_qp_offset=0 / threads=6 / sliced_threads=0 / nr=0 / decimate=1 / interlaced=0 / constrained_intra=0 / bframes=3 / b_pyramid=0 / b_adapt=1 / b_bias=0 / direct=1 / weightb=0 / open_gop=0 / weightp=0 / keyint=240 / keyint_min=23 / scenecut=40 / intra_refresh=0 / rc_lookahead=40 / rc=abr / mbtree=1 / bitrate=10000 / ratetol=1.0 / qcomp=0.60 / qpmin=3 / qpmax=51 / qpstep=4 / ip_ratio=1.40 / aq=1:1.00

Language                       : English

Default                        : Yes

Forced                         : No

Color range                    : Limited

Color primaries                : BT.709

Transfer characteristics       : BT.709

Matrix coefficients            : BT.709


Audio

ID                             : 2

Format                         : DTS

Format/Info                    : Digital Theater Systems

Mode                           : 16

Format settings, Endianness    : Big

Codec ID                       : A_DTS

Duration                       : 1 h 24 min

Bit rate mode                  : Constant

Bit rate                       : 1 509 kb/s

Channel(s)                     : 6 channels

Channel positions              : Front: L C R, Side: L R, LFE

Sampling rate                  : 48.0 kHz

Frame rate                     : 93.750 FPS (512 spf)

Bit depth                      : 16 bits

Compression mode               : Lossy

Stream size                    : 909 MiB (13%)

Language                       : English

Default                        : Yes

Forced                         : No


Text #1

ID                             : 3

Format                         : ASS

Codec ID                       : S_TEXT/ASS

Codec ID/Info                  : Advanced Sub Station Alpha

Duration                       : 1 h 21 min

Bit rate                       : 217 b/s

Count of elements              : 896

Compression mode               : Lossless

Stream size                    : 129 KiB (0%)

Title                          : 中英字幕

Language                       : Chinese

Default                        : Yes

Forced                         : No


Text #2

ID                             : 4

Format                         : ASS

Codec ID                       : S_TEXT/ASS

Codec ID/Info                  : Advanced Sub Station Alpha

Duration                       : 1 h 21 min

Bit rate                       : 101 b/s

Count of elements              : 896

Compression mode               : Lossless

Stream size                    : 60.3 KiB (0%)

Title                          : 简体字幕

Language                       : Chinese

Default                        : No

Forced                         : No


Text #3

ID                             : 5

Format                         : ASS

Codec ID                       : S_TEXT/ASS

Codec ID/Info                  : Advanced Sub Station Alpha

Duration                       : 1 h 21 min

Bit rate                       : 101 b/s

Count of elements              : 896

Compression mode               : Lossless

Stream size                    : 60.3 KiB (0%)

Title                          : 繁体字幕

Language                       : Chinese

Default                        : No

Forced                         : No


Text #4

ID                             : 6

Format                         : ASS

Codec ID                       : S_TEXT/ASS

Codec ID/Info                  : Advanced Sub Station Alpha

Duration                       : 1 h 21 min

Bit rate                       : 160 b/s

Count of elements              : 896

Compression mode               : Lossless

Stream size                    : 95.1 KiB (0%)

Title                          : 英文字幕

Language                       : English

Default                        : No

Forced                         : No


Menu

00:00:00.000                   : en:Chapter 1

00:00:04.022                   : en:Chapter 2

00:09:38.554                   : en:Chapter 3

00:15:28.112                   : en:Chapter 4

00:25:13.321                   : en:Chapter 5

00:36:35.127                   : en:Chapter 6

00:41:50.901                   : en:Chapter 7

00:48:53.240                   : en:Chapter 8

00:53:56.918                   : en:Chapter 9

01:00:37.944                   : en:Chapter 10

01:06:15.489                   : en:Chapter 11

01:12:16.767                   : en:Chapter 12

01:20:47.527                   : en:Chapter 13

01:24:14.734                   : en:Chapter 14


1 个附件 售价 大小 下载 时间

恐怖相亲.Bad Biology.2008.US.BluRay.1918x1080p.x264.DTS-KOOK.[中英双字].torrent 0 金币 139.40K 2051 次 11天前

#1楼
发帖时间:2018-09-14 20:23:43   |   回复数:6
911degrees
隐世仙人♂
非常感谢,谢谢分享
11天前 #2楼
liyouchai
超凡入圣№
谢谢楼主分享资源
11天前 #3楼
胖胖纸
武林高手
嘛也7个
10天前 #4楼
blue23
隐世仙人♂
感谢楼主分享
10天前 #5楼
nttyhjp
小有名气
谢谢楼主,赞一个
9天前 #6楼
zhdyy
武林高手
谢谢楼主分享资源谢谢楼主分享资源
8天前 #7楼
游客组