aoloffline
版主

[2011] [日本] [剧情] [WEB-1080P] [BT下载]太阳的遗产 The.Legacy.of.the.Sun.2011.1080p.AMZN.WEBRip.DDP5.1.x264-SbR 13GB

-->

The.Legacy.of.the.Sun.2011.JAPANESE.1080p.AMZN.WEBRip.DDP5.1.x264-SbR

◎译  名 太阳的遗产/日轮的遗产

◎片  名 日輪の遺産

◎年  代 2011

◎产  地 日本

◎类  别 剧情

◎语  言 日语

◎上映日期 2011-08-27

◎BT之家整理 http://www.btbtt.us/

◎片  长 134分钟

◎导  演 佐佐部清 Kiyoshi Sasabe

◎主  演 堺雅人 Masato Sakai

      中村狮童 Shido Nakamura

      福士诚治 Seiji Fukushi

      中山裕介 Yusuke Santamaria

      森迫永依 Ei Morisako

      麻生久美子 Kumiko Aso

      八千草薰 Kaoru Yachigusa

      柴俊夫 Toshio Shiba

      磨赤儿 Akaji Maro

      约翰·萨维奇 John Savage


◎简  介


  昭和20年(1945)8月,在这个最热的夏天,日本帝国正面临着落败的终局。陆军大臣阿南惟几(柴俊夫 饰)等5名军方高层意识到败局已定,为了替将来的复兴做准备,他们决定将“马来之虎” 山下奉文从麦克阿瑟(约翰•萨维奇 饰)手中夺取的900亿日元黄金藏匿起来。承担这一绝密重任的是陆军近卫第一师少佐真柴司郎(堺雅人 饰)、中尉小泉重雄(福士誠治 饰)以及经历了血雨腥风的曹长望月庄造(中村狮童 饰)。他们奉命将黄金伪装成号称终极武器的决号榴弹,在森胁女子学校20名少女的帮助下藏进了某山洞中。在这一过程中,军人和女孩们建立了信任与友情,但残酷的战争却将他们引向了黑暗的终点……

  本片根据浅田次郎的同名原著改编。


Video
ID : 1
Format : AVC
Format/Info : Advanced Video Codec
Format profile : [email protected]
Format settings : CABAC / 4 Ref Frames
Format settings, CABAC : Yes
Format settings, ReFrames : 4 frames
Codec ID : V_MPEG4/ISO/AVC
Duration : 2 h 14 min
Bit rate mode : Variable
Bit rate : 13.4 Mb/s
Maximum bit rate : 15.0 Mb/s
Width : 1 920 pixels
Height : 1 080 pixels
Display aspect ratio : 16:9
Frame rate mode : Constant
Frame rate : 23.976 (24000/1001) FPS
Color space : YUV
Chroma subsampling : 4:2:0
Bit depth : 8 bits
Scan type : Progressive
Bits/(Pixel*Frame) : 0.270
Stream size : 12.6 GiB (95%)
Default : Yes
Forced : No
Color range : Limited
Color primaries : BT.709
Transfer characteristics : BT.709
Matrix coefficients : BT.709

Audio
ID : 2
Format : E-AC-3
Format/Info : Enhanced Audio Coding 3
Codec ID : A_EAC3
Duration : 2 h 14 min
Bit rate mode : Constant
Bit rate : 640 kb/s
Channel(s) : 6 channels
Channel positions : Front: L C R, Side: L R, LFE
Sampling rate : 48.0 kHz
Frame rate : 187.500 FPS (256 SPF)
Compression mode : Lossy
Stream size : 614 MiB (5%)
Language : Japanese
Service kind : Complete Main
Default : Yes
Forced : No




1 个附件 售价 大小 下载 时间

The.Legacy.of.the.Sun.2011.JAPANESE.1080p.AMZN.WEBRip.DDP5.1.x264-SbR[btbtt.me].torrent 0 金币 66.52K 1904 次 11月前

#1楼
发帖时间:2018-09-17 22:11:04   |   回复数:4
liyouchai
隐世仙人♂
谢谢楼主分享资源
11月前 #2楼
shinmin
一派掌门
好棒 的 呢  喜欢  喜欢
11月前 #3楼
911degrees
隐世仙人♂
非常感谢,谢谢分享
11月前 #4楼
blue23
隐世仙人♂
感谢楼主分享
11月前 #5楼
游客组