aoloffline
超凡入圣№

[2015] [韩国] [剧情] [BD-1080P] [BT下载]文英 Moon-young.2015.1080p.BluRay.x264-JRP 4.37GB

-->

Moon-young.2015.1080p.BluRay.x264-JRP

◎译  名 文英

◎片  名 문영

◎年  代 2015

◎产  地 韩国

◎类  别 剧情/短片

◎语  言 韩语

◎上映日期 2015-11(首尔独立电影节)/2017-01-12(韩国)

◎IMDb评分  6.3/10 from 46 users

◎IMDb链接  http://www.imdb.com/title/tt5931388/

◎豆瓣评分 6.8/10 from 549 users

◎豆瓣链接 https://movie.douban.com/subject/26668561/

◎BT之家整理 http://www.btbtt.us/

◎片  长 64分钟(公映版)/43分钟

◎导  演 KIM Soyoen

◎主  演 金泰璃 Tae-ri Kim


◎简  介


  孤独的文英拿着DV记录着生活中的点滴和不同的面孔,直到与一个女生相识。她们同床入眠,却又各怀心思。


Video
ID : 1
Format : AVC
Format/Info : Advanced Video Codec
Format profile : [email protected]
Format settings : CABAC / 4 Ref Frames
Format settings, CABAC : Yes
Format settings, ReFrames : 4 frames
Codec ID : V_MPEG4/ISO/AVC
Duration : 1 h 4 min
Bit rate : 8 826 kb/s
Width : 1 920 pixels
Height : 1 040 pixels
Display aspect ratio : 1.85:1
Frame rate mode : Constant
Frame rate : 23.976 (24000/1001) FPS
Color space : YUV
Chroma subsampling : 4:2:0
Bit depth : 8 bits
Scan type : Progressive
Bits/(Pixel*Frame) : 0.184
Stream size : 3.95 GiB (90%)
Writing library : x264 core 155 r2901 7d0ff22
Encoding settings : cabac=1 / ref=4 / deblock=1:-3:-3 / analyse=0x3:0x113 / me=umh / subme=7 / psy=1 / psy_rd=1.00:0.00 / mixed_ref=1 / me_range=16 / chroma_me=1 / trellis=1 / 8x8dct=1 / cqm=0 / deadzone=21,11 / fast_pskip=0 / chroma_qp_offset=-2 / threads=12 / lookahead_threads=2 / sliced_threads=0 / nr=0 / decimate=1 / interlaced=0 / bluray_compat=0 / constrained_intra=0 / bframes=3 / b_pyramid=2 / b_adapt=1 / b_bias=0 / direct=3 / weightb=1 / open_gop=0 / weightp=2 / keyint=240 / keyint_min=23 / scenecut=40 / intra_refresh=0 / rc_lookahead=40 / rc=2pass / mbtree=1 / bitrate=8826 / ratetol=1.0 / qcomp=0.60 / qpmin=0 / qpmax=69 / qpstep=4 / cplxblur=20.0 / qblur=0.5 / vbv_maxrate=62500 / vbv_bufsize=78125 / nal_hrd=none / filler=0 / ip_ratio=1.40 / aq=1:0.80
Default : Yes
Forced : No

Audio
ID : 2
Format : FLAC
Format/Info : Free Lossless Audio Codec
Codec ID : A_FLAC
Duration : 1 h 4 min
Bit rate mode : Variable
Bit rate : 934 kb/s
Channel(s) : 2 channels
Channel positions : Front: L R
Sampling rate : 48.0 kHz
Frame rate : 11.719 FPS (4096 SPF)
Bit depth : 24 bits
Stream size : 428 MiB (10%)
Writing library : libFLAC 1.2.1 (UTC 2007-09-17)
Language : Korean
Default : Yes
Forced : No

Text
ID : 3
Format : UTF-8
Codec ID : S_TEXT/UTF8
Codec ID/Info : UTF-8 Plain Text
Duration : 1 h 2 min
Bit rate : 25 b/s
Count of elements : 345
Stream size : 11.5 KiB (0%)
Language : English
Default : Yes
Forced : Yes

Menu
00:00:00.000 : en:00:00:00.000
00:10:13.196 : en:00:10:13.196
00:19:05.519 : en:00:19:05.519
00:29:35.232 : en:00:29:35.232
00:41:02.043 : en:00:41:02.043
00:49:58.162 : en:00:49:58.162
00:56:27.968 : en:00:56:27.968
01:02:45.303 : en:01:02:45.303



1 个附件 售价 大小 下载 时间

Moon-young.2015.1080p.BluRay.x264-JRP[btbtt.me].torrent 0 金币 87.94K 1134 次 2018-9-21

#1楼
发帖时间:2018-09-21 21:42:51   |   回复数:4
liyouchai
隐世仙人♂
谢谢楼主分享资源
2018-9-22 #2楼
911degrees
隐世仙人♂
非常感谢,谢谢分享
2018-9-22 #3楼
blue23
隐世仙人♂
感谢楼主分享
2018-9-22 #4楼
tanchoohoon
武林盟主
感谢楼主的无私分享!
2018-9-22 #5楼
游客组