aoloffline
版主

[2011] [欧美] [动画] [BD-Remux] [BT下载]蝙蝠侠:元年 2011.1080p.BluRay.REMUX.AVC.DTS-HD.MA.5.1-FGT 12GB

-->

Batman.Beyond.Year.One.2011.1080p.BluRay.REMUX.AVC.DTS-HD.MA.5.1-FGT

◎译  名 蝙蝠侠:元年/蝙蝠侠:第一年

◎片  名 Batman: Year One

◎年  代 2011

◎产  地 美国

◎类  别 剧情/动作/动画/犯罪

◎语  言 英语

◎上映日期 2011-10-18(美国)

◎IMDb评分  7.4/10 from 26,590 users

◎IMDb链接  http://www.imdb.com/title/tt1672723/

◎豆瓣评分 8.1/10 from 4,953 users

◎豆瓣链接 https://movie.douban.com/subject/5150481/

◎BT之家整理 http://www.btbtt.us/

◎片  长 64分钟

◎导  演 Lauren Montgomery

◎主  演 本杰明·麦肯锡 Ben McKenzie

      布莱恩·科兰斯顿 Bryan Cranston

      艾丽莎·杜什库 Eliza Dushku

      凯缇·萨克霍夫 Katee Sackhoff

      阿历克斯·罗克 Alex Rocco


◎简  介


  《蝙蝠侠:第一年》原著漫画于1988年首次发表,作者弗兰克·米勒开创性地再造了蝙蝠侠的起源故事——他是什么人,他如何成为蝙蝠侠。

  本作从布鲁斯·韦恩第一次回到高谭市为开端,为这个传奇人物的诞生打下了新的基础,成为正史中最重要的一页。作为一切故事的开端,本集讲述了各个人物的来历。哈维·邓特不是令人瞩目的青年才俊,而是屡败屡战的检察官;猫女赛琳娜·凯勒不是上流社会的优雅贵妇,只是一名出身街头的穷妓女。在他们生存的哥谭市里,官员们同黑帮勾结,警察是罪犯的保护伞。新调来的警官詹姆斯·戈登想在一个堕落的城市做一名好警察;刚刚回到故乡准备扫尽罪孽的布鲁斯·韦恩则在流血中懂得,惟有让人恐惧才能叫人尊敬。在深夜中,他悄然出现,又随着宽大黑披风带起的一缕微风而没入黑暗。有人说他是野蛮的暴徒,有人说他是嗜血的疯子,也有人认为他只是一个都市传说。一切传说都有它的起源……


Video
ID : 1
Format : AVC
Format/Info : Advanced Video Codec
Format profile : [email protected]
Format settings : CABAC / 2 Ref Frames
Format settings, CABAC : Yes
Format settings, ReFrames : 2 frames
Format settings, GOP : M=1, N=10
Codec ID : V_MPEG4/ISO/AVC
Duration : 1 h 4 min
Bit rate mode : Variable
Bit rate : 19.9 Mb/s
Width : 1 920 pixels
Height : 1 080 pixels
Display aspect ratio : 16:9
Frame rate mode : Constant
Frame rate : 23.976 (24000/1001) FPS
Color space : YUV
Chroma subsampling : 4:2:0
Bit depth : 8 bits
Scan type : Progressive
Bits/(Pixel*Frame) : 0.401
Stream size : 8.94 GiB (73%)
Title : Batman.Beyond.Year.One.2011.1080p.BluRay.REMUX.AVC.DTS-HD.MA.5.1-FGT
Language : English
Default : No
Forced : No

Audio #1
ID : 2
Format : DTS
Format/Info : Digital Theater Systems
Format profile : MA / Core
Codec ID : A_DTS
Duration : 1 h 4 min
Bit rate mode : Variable / Constant
Bit rate : 3 762 kb/s / 1 509 kb/s
Channel(s) : 6 channels
Channel positions : Front: L C R, Side: L R, LFE
Sampling rate : 48.0 kHz
Frame rate : 93.750 FPS (512 SPF)
Bit depth : 24 bits
Compression mode : Lossless / Lossy
Stream size : 1.69 GiB (14%)
Title : Batman.Beyond.Year.One.2011.1080p.BluRay.REMUX.AVC.DTS-HD.MA.5.1-FGT
Language : English
Default : Yes
Forced : No

Audio #2
ID : 3
Format : DTS
Format/Info : Digital Theater Systems
Codec ID : A_DTS
Duration : 1 h 4 min
Bit rate mode : Constant
Bit rate : 1 509 kb/s
Channel(s) : 6 channels
Channel positions : Front: L C R, Side: L R, LFE
Sampling rate : 48.0 kHz
Frame rate : 93.750 FPS (512 SPF)
Bit depth : 24 bits
Compression mode : Lossy
Stream size : 693 MiB (6%)
Title : Batman.Beyond.Year.One.2011.1080p.BluRay.REMUX.AVC.DTS-HD.MA.5.1-FGT
Language : English
Default : No
Forced : No

Audio #3
ID : 4
Format : AC-3
Format/Info : Audio Coding 3
Codec ID : A_AC3
Duration : 1 h 4 min
Bit rate mode : Constant
Bit rate : 640 kb/s
Channel(s) : 6 channels
Channel positions : Front: L C R, Side: L R, LFE
Sampling rate : 48.0 kHz
Frame rate : 31.250 FPS (1536 SPF)
Bit depth : 16 bits
Compression mode : Lossy
Stream size : 294 MiB (2%)
Title : Batman.Beyond.Year.One.2011.1080p.BluRay.REMUX.AVC.DTS-HD.MA.5.1-FGT
Language : French
Service kind : Complete Main
Default : No
Forced : No

Audio #4
ID : 5
Format : AC-3
Format/Info : Audio Coding 3
Codec ID : A_AC3
Duration : 1 h 4 min
Bit rate mode : Constant
Bit rate : 640 kb/s
Channel(s) : 6 channels
Channel positions : Front: L C R, Side: L R, LFE
Sampling rate : 48.0 kHz
Frame rate : 31.250 FPS (1536 SPF)
Bit depth : 16 bits
Compression mode : Lossy
Stream size : 294 MiB (2%)
Title : Batman.Beyond.Year.One.2011.1080p.BluRay.REMUX.AVC.DTS-HD.MA.5.1-FGT
Language : German
Service kind : Complete Main
Default : No
Forced : No

Audio #5
ID : 6
Format : AC-3
Format/Info : Audio Coding 3
Codec ID : A_AC3
Duration : 1 h 4 min
Bit rate mode : Constant
Bit rate : 192 kb/s
Channel(s) : 2 channels
Channel positions : Front: L R
Sampling rate : 48.0 kHz
Frame rate : 31.250 FPS (1536 SPF)
Bit depth : 16 bits
Compression mode : Lossy
Stream size : 88.1 MiB (1%)
Title : Batman.Beyond.Year.One.2011.1080p.BluRay.REMUX.AVC.DTS-HD.MA.5.1-FGT
Language : Spanish
Service kind : Complete Main
Default : No
Forced : No

Audio #6
ID : 7
Format : AC-3
Format/Info : Audio Coding 3
Codec ID : A_AC3
Duration : 1 h 4 min
Bit rate mode : Constant
Bit rate : 448 kb/s
Channel(s) : 6 channels
Channel positions : Front: L C R, Side: L R, LFE
Sampling rate : 48.0 kHz
Frame rate : 31.250 FPS (1536 SPF)
Bit depth : 16 bits
Compression mode : Lossy
Stream size : 206 MiB (2%)
Title : Batman.Beyond.Year.One.2011.1080p.BluRay.REMUX.AVC.DTS-HD.MA.5.1-FGT
Language : English
Service kind : Complete Main
Default : No
Forced : No

Text #1
ID : 8
Format : PGS
Muxing mode : zlib
Codec ID : S_HDMV/PGS
Codec ID/Info : Picture based subtitle format used on BDs/HD-DVDs
Duration : 59 min 56 s
Bit rate : 30.2 kb/s
Count of elements : 1420
Stream size : 13.0 MiB (0%)
Title : English-PGS
Language : English
Default : Yes
Forced : No

Text #2
ID : 9
Format : PGS
Muxing mode : zlib
Codec ID : S_HDMV/PGS
Codec ID/Info : Picture based subtitle format used on BDs/HD-DVDs
Duration : 1 h 0 min
Bit rate : 27.8 kb/s
Count of elements : 1366
Stream size : 12.0 MiB (0%)
Title : French-PGS
Language : French
Default : No
Forced : No

Text #3
ID : 10
Format : PGS
Muxing mode : zlib
Codec ID : S_HDMV/PGS
Codec ID/Info : Picture based subtitle format used on BDs/HD-DVDs
Duration : 59 min 56 s
Bit rate : 35.5 kb/s
Count of elements : 1496
Stream size : 15.2 MiB (0%)
Title : German-PGS
Language : German
Default : No
Forced : No

Text #4
ID : 11
Format : PGS
Muxing mode : zlib
Codec ID : S_HDMV/PGS
Codec ID/Info : Picture based subtitle format used on BDs/HD-DVDs
Duration : 1 s 22 ms
Bit rate : 17.3 kb/s
Count of elements : 2
Stream size : 2.16 KiB (0%)
Title : Spanish-PGS
Language : Spanish
Default : No
Forced : No

Menu
00:00:00.000 : en:Chapter 01
00:01:51.152 : en:Chapter 02
00:09:41.330 : en:Chapter 03
00:18:57.010 : en:Chapter 04
00:27:09.461 : en:Chapter 05
00:39:44.465 : en:Chapter 06
00:49:15.953 : en:Chapter 07
00:59:45.915 : en:Chapter 08
01:00:39.052 : en:Chapter 09




1 个附件 售价 大小 下载 时间

Batman.Beyond.Year.One.2011.1080p.BluRay.REMUX.AVC.DTS-HD.MA.5.1-FGThuazhi.torrent 0 金币 61.47K 1344 次 10月前

#1楼
发帖时间:2018-09-27 00:26:44   |   回复数:3
liyouchai
隐世仙人♂
谢谢楼主分享资源
10月前 #2楼
911degrees
隐世仙人♂
非常感谢,谢谢分享
10月前 #3楼
blue23
隐世仙人♂
感谢楼主分享
10月前 #4楼
游客组