时间的过客
小有名气

[更 早] [日本] [动画] [HDTV/HDrip] [BT][哆啦A梦剧场版1986:大雄与铁人兵团][1080i/HDTV/TS/国粤(TVB粤语)日四语/14.48GB]

-->

片源由a574045075提供,在此感谢!

台配音轨、粤语音轨提取自VCD,TVB粤语取自TVB录制源码,已做调制匹配高清重制版。

如需转载,请注明出处!

◎译  名 哆啦A梦:大雄与铁人兵团/哆啦A夢:大雄与铁人兵团

◎片  名 ドラえもん のび太と鉄人兵団

◎年  代 1986

◎产  地 日本

◎类  别 科幻/动画/冒险

◎语  言 日语

◎上映日期 1986-03-15

◎IMDb评分  7.1/10 from 139 users

◎IMDb链接  http://www.imdb.com/title/tt1147528/

◎豆瓣评分 8.3/10 from 2,355 users

◎豆瓣链接 https://movie.douban.com/subject/1458894/

◎片  长 97分钟

◎导  演 芝山努 Tsutomu Shibayama

◎主  演 大山信代 Nobuyo Ohyama

       小原乃梨子 Noriko Ohara

       立壁和也 Kazuya Tatekabe

       肝付兼太 Kaneta Kimotsuki

       野村道子 Michiko Nomura

       熊倉一雄 Kazuo Kumakura


◎简  介


  因为玩具机器人,大雄(小原乃梨子 配音)受到小夫(肝付兼太 配音)和胖虎(立壁和也 配音)的奚落,连哆啦A梦(大山のぶ代 配音)不愿帮他。为了寻找生气走掉的哆啦A梦,大雄通过任意门来到寒冷的北极,却在这里发现奇怪的机器人零件。在此之后,各式的零件源源不断从空中掉落至大雄的家中。由于零件过于巨大,为了不引起骚动,两个好友将机器运到镜面世界,并组装成巨大的机器人。他们兴奋地邀请静香(野村道子 配音)来镜面世界玩耍,偶然间发现机器人竟然装备有威力强大的武器。不久,一个名为莉露露(山本百合子 配音)的女孩出现在小镇上,她自称是机器人的主人。大雄他们热心地将镜面世界工具借给莉露露,却发现她在那里建立了毁灭地球的基地……


General

ID                          : 1 (0x1)

Complete name               : J:\Doraemon Nobita and the Steel Troops 1986 HDTV 1080i MPEG-2 4Audio-doraemon.ts

Format                      : MPEG-TS

File size                   : 14.5 GiB

Duration                    : 1 h 37 min

Overall bit rate mode       : Variable

Overall bit rate            : 21.3 Mb/s

Maximum Overall bit rate    : 35.5 Mb/s


Video

ID                          : 4113 (0x1011)

Menu ID                     : 1 (0x1)

Format                      : MPEG Video

Format version              : Version 2

Format profile              : Main@High

Format settings             : CustomMatrix / BVOP

Format settings, BVOP       : Yes

Format settings, Matrix     : Custom

Format settings, GOP        : Variable

Format settings, picture st : Frame

Codec ID                    : 2

Duration                    : 1 h 37 min

Bit rate mode               : Variable

Width                       : 1 920 pixels

Height                      : 1 080 pixels

Display aspect ratio        : 16:9

Frame rate                  : 29.970 (30000/1001) FPS

Color space                 : YUV

Chroma subsampling          : 4:2:0

Bit depth                   : 8 bits

Scan type                   : Interlaced

Scan order                  : Top Field First

Compression mode            : Lossy

Time code of first frame    : 00:00:00:00

Time code source            : Group of pictures header

GOP, Open/Closed            : Open

Color primaries             : BT.709

Transfer characteristics    : BT.709

Matrix coefficients         : BT.709


Audio #1

ID                          : 4352 (0x1100)

Menu ID                     : 1 (0x1)

Format                      : AAC LC

Format/Info                 : Advanced Audio Codec Low Complexity

Format version              : Version 2

Muxing mode                 : ADTS

Codec ID                    : 15-2

Duration                    : 1 h 37 min

Bit rate mode               : Variable

Channel(s)                  : 2 channels

Channel layout              : L R

Sampling rate               : 48.0 kHz

Frame rate                  : 46.875 FPS (1024 SPF)

Compression mode            : Lossy

Language                    : Japanese


Audio #2

ID                          : 4353 (0x1101)

Menu ID                     : 1 (0x1)

Format                      : AC-3

Format/Info                 : Audio Coding 3

Commercial name             : Dolby Digital

Codec ID                    : 129

Duration                    : 1 h 37 min

Bit rate mode               : Constant

Bit rate                    : 224 kb/s

Channel(s)                  : 2 channels

Channel layout              : L R

Sampling rate               : 48.0 kHz

Frame rate                  : 31.250 FPS (1536 SPF)

Bit depth                   : 16 bits

Compression mode            : Lossy

Stream size                 : 156 MiB (1%)

Language                    : Chinese

Service kind                : Complete Main


Audio #3

ID                          : 4354 (0x1102)

Menu ID                     : 1 (0x1)

Format                      : AC-3

Format/Info                 : Audio Coding 3

Commercial name             : Dolby Digital

Codec ID                    : 129

Duration                    : 1 h 37 min

Bit rate mode               : Constant

Bit rate                    : 224 kb/s

Channel(s)                  : 2 channels

Channel layout              : L R

Sampling rate               : 48.0 kHz

Frame rate                  : 31.250 FPS (1536 SPF)

Bit depth                   : 16 bits

Compression mode            : Lossy

Stream size                 : 156 MiB (1%)

Language                    : Chinese

Service kind                : Complete Main


Audio #4

ID                          : 4355 (0x1103)

Menu ID                     : 1 (0x1)

Format                      : AC-3

Format/Info                 : Audio Coding 3

Commercial name             : Dolby Digital

Codec ID                    : 129

Duration                    : 1 h 37 min

Bit rate mode               : Constant

Bit rate                    : 192 kb/s

Channel(s)                  : 2 channels

Channel layout              : L R

Sampling rate               : 48.0 kHz

Frame rate                  : 31.250 FPS (1536 SPF)

Bit depth                   : 16 bits

Compression mode            : Lossy

Stream size                 : 134 MiB (1%)

Language                    : Chinese

Service kind                : Complete Main


1 个附件 售价 大小 下载 时间

Doraemon Nobita and the Steel Troops 1986 HDTV 1080i MPEG-2 4Audio-doraemon.ts.torrent 0 金币 72.87K 1288 次 1月前

#1楼
发帖时间:2018-10-15 22:51:29   |   回复数:3
liyouchai
超凡入圣№
谢谢楼主分享资源
1月前 #2楼
911degrees
隐世仙人♂
非常感谢,谢谢分享
1月前 #3楼
blue23
隐世仙人♂
感谢楼主分享
1月前 #4楼
游客组