_KOOK
武林高手

[2016] [韩国] [爱情] [WEB-1080P] [BT下载]热线女孩.P.S. Girls.2016.KR.WEB-DL.1920x1080p.x264.AAC-KOOK.[韩语中字] 2.7GB

-->

 热线女孩.P.S. Girls.2016.KR.WEB-DL.1920x1080p.x264.AAC-KOOK.[韩语中字] 2.7GB 

无广告,无水印

不定时做种,保证出种,请耐心等待.


※※※※※※※ 影片信息 ※※※※※※※


◎片   名 P.S. Girls

◎译   名 热线女孩 /  电话情人

◎年   代 2016

◎国   家 韩国

◎类   别 剧情

◎语   言 韩语

◎上映日 期 2016-02-04(韩国)

◎字   幕 简体字幕/繁体字幕

◎豆瓣 评分  4.5/10 from 291 users

◎视频尺 寸  1920x1080p

◎片   长 1.31.24

◎主   演 姜恩惠 / 李恩美




 

◎简  介



     给女主角打分,这妹子的身材真好啊。。。三颗星全给她。感觉姜恩惠长的挺漂亮的,不知道是不是整的,但是姜恩惠彻底堕落了!






※※※※※※※ 参数信息 ※※※※※※※




General

Unique ID                      : 247998449288407584463313492146707835374 (0xBA92C3932F59F4BCA50555581E4129EE)


Format                         : Matroska

Format version                 : Version 4 / Version 2

File size                      : 2.70 GiB

Duration                       : 1 h 31 min

Overall bit rate               : 4 234 kb/s

Movie name                     : KOOK

Encoded date                   : UTC 2018-10-20 12:28:29

Writing application            : mkvmerge v9.4.2 ('So High') 64bit

Writing library                : libebml v1.3.4 + libmatroska v1.4.5

Attachments                    : 正式海报.jpg / fzlbfw.ttf / fzlbjw.ttf


Video

ID                             : 1

Format                         : MPEG-4 Visual

Format profile                 : [email protected]

Format settings, BVOP          : No

Format settings, QPel          : No

Format settings, GMC           : No warppoints

Format settings, Matrix        : Default (H.263)

Codec ID                       : V_MS/VFW/FOURCC / DIVX

Codec ID/Info                  : Project Mayo

Codec ID/Hint                  : DivX 4

Duration                       : 1 h 31 min

Bit rate                       : 4 091 kb/s

Width                          : 1 920 pixels

Height                         : 1 080 pixels

Display aspect ratio           : 16:9

Frame rate mode                : Constant

Frame rate                     : 23.976 FPS

Color space                    : YUV

Chroma subsampling             : 4:2:0

Bit depth                      : 8 bits

Scan type                      : Progressive

Compression mode               : Lossy

Bits/(Pixel*Frame)             : 0.082

Stream size                    : 2.61 GiB (97%)

Writing library                : Lavc54.14.0

Default                        : Yes

Forced                         : No


Audio

ID                             : 2

Format                         : AAC

Format/Info                    : Advanced Audio Codec

Format profile                 : LC

Codec ID                       : A_AAC

Duration                       : 1 h 31 min

Bit rate                       : 128 kb/s

Channel(s)                     : 2 channels

Channel positions              : Front: L R

Sampling rate                  : 48.0 kHz

Frame rate                     : 46.875 FPS (1024 spf)

Compression mode               : Lossy

Stream size                    : 83.7 MiB (3%)

Default                        : Yes

Forced                         : No


Text #1

ID                             : 3

Format                         : ASS

Codec ID                       : S_TEXT/ASS

Codec ID/Info                  : Advanced Sub Station Alpha

Duration                       : 1 h 29 min

Bit rate                       : 68 b/s

Count of elements              : 839

Compression mode               : Lossless

Stream size                    : 44.8 KiB (0%)

Title                          : 简体字幕

Language                       : Chinese

Default                        : Yes

Forced                         : No


Text #2

ID                             : 4

Format                         : ASS

Codec ID                       : S_TEXT/ASS

Codec ID/Info                  : Advanced Sub Station Alpha

Duration                       : 1 h 29 min

Bit rate                       : 68 b/s

Count of elements              : 839

Compression mode               : Lossless

Stream size                    : 44.8 KiB (0%)

Title                          : 繁体字幕

Language                       : Chinese

Default                        : No

Forced                         : No


1 个附件 售价 大小 下载 时间

热线女孩.P.S. Girls.2016.KR.WEB-DL.1920x1080p.x264.AAC-KOOK.[韩语中字].torrent 0 金币 111.82K 8357 次 11月前

#1楼
发帖时间:2018-10-22 21:51:48   |   回复数:4
liyouchai
隐世仙人♂
谢谢楼主分享资源
11月前 #2楼
911degrees
隐世仙人♂
非常感谢,谢谢分享
11月前 #3楼
tanchoohoon
武林盟主
感谢楼主的无私分享!
11月前 #4楼
blue23
隐世仙人♂
感谢楼主分享
10月前 #5楼
游客组