aoloffline
版主

[更 早] [欧美] [恐怖] [BD-4K] [BT下载]德州电锯杀人狂 1974.RERIP.2160p.BluRay.x265.10bit.SDR.TrueHD-IAMABLE 25GB

-->

The.Texas.Chain.Saw.Massacre.1974.RERIP.2160p.BluRay.x265.10bit.SDR.TrueHD.7.1.Atmos-IAMABLE

◎译  名 德州电锯杀人狂/德州链锯杀人狂/德州电锯大屠杀/惨无人道

◎片  名 The Texas Chain Saw Massacre

◎年  代 1974

◎产  地 美国

◎类  别 悬疑/恐怖

◎语  言 英语

◎上映日期 1974-10-01

◎IMDb评分  7.5/10 from 111,011 users

◎IMDb链接  http://www.imdb.com/title/tt0072271/

◎豆瓣评分 7.0/10 from 9,585 users

◎豆瓣链接 https://movie.douban.com/subject/1300392/

◎BT之家整理 http://www.btbtt.us/

◎片  长 83 分钟/Germany: 75 分钟(new longer Version)

◎导  演 托比·霍珀 Tobe Hooper

◎主  演 玛丽莲·伯恩斯 Marilyn Burns

      阿伦·丹齐格 Allen Danziger

      保罗·A·普泰 Paul A. Partain

      William Vail

      Teri McMinn

      Edwin Neal

      Jim Siedow

      贡纳·汉森 Gunnar Hansen


◎简  介


  本片在澳大利亚80年代初才被允许放映。

  电影取材自50年代连续杀人魔Ed Gein的真实事迹。

  几个年轻人——Sally (玛丽莲·伯恩斯 Marilyn Burns 饰) 、Franklin  (保罗A. 普泰 Paul A. Partain 饰)、Jerry (阿伦·丹齐格 Allen Danziger 饰)、Kirk (威廉·韦尔 William Vail)和Pam (泰瑞·麦克明 Teri McMinn 饰),驾驶房车驶入荒漠中的德州特拉维斯镇。途中,一个满身伤痕、丧魂落魄的搭车人(埃德温·尼尔 Edwin Neal 饰)。勾起了他们的好奇心,他们在他的带领下进入一幢阴森大屋试图弄清真相。大屋被一股神秘、恐怖的氛围所笼罩,仿佛有一双眼睛始终在窥视着他们的一举一动。正当这群年轻人惊恐万分、不知所措时,电锯声骤然而起,他们最后的噩梦随之降临……


Video
ID : 1
Format : HEVC
Format/Info : High Efficiency Video Coding
Format profile : Main 10@L5.1@High
Codec ID : V_MPEGH/ISO/HEVC
Duration : 1 h 23 min
Bit rate : 29.8 Mb/s
Width : 3 840 pixels
Height : 2 076 pixels
Display aspect ratio : 1.85:1
Frame rate mode : Constant
Frame rate : 23.976 (24000/1001) FPS
Color space : YUV
Chroma subsampling : 4:2:0
Bit depth : 10 bits
Bits/(Pixel*Frame) : 0.156
Stream size : 17.4 GiB (69%)
Writing library : x265 2.97e978ed93d60:[Windows][GCC 8.2.0][64 bit] 10bit
Encoding settings : cpuid=1176575 / frame-threads=6 / numa-pools=32 / wpp / no-pmode / no-pme / no-psnr / no-ssim / log-level=2 / input-csp=1 / input-res=3840x2076 / interlace=0 / total-frames=119940 / level-idc=51 / high-tier=1 / uhd-bd=0 / ref=4 / no-allow-non-conformance / repeat-headers / annexb / aud / hrd / info / hash=0 / no-temporal-layers / no-open-gop / min-keyint=24 / keyint=240 / gop-lookahead=0 / bframes=4 / b-adapt=2 / b-pyramid / bframe-bias=0 / rc-lookahead=25 / lookahead-slices=4 / scenecut=40 / radl=0 / no-intra-refresh / ctu=64 / min-cu-size=8 / rect / no-amp / max-tu-size=32 / tu-inter-depth=1 / tu-intra-depth=1 / limit-tu=0 / rdoq-level=2 / dynamic-rd=0.00 / no-ssim-rd / signhide / no-tskip / nr-intra=0 / nr-inter=0 / no-constrained-intra / no-strong-intra-smoothing / max-merge=3 / limit-refs=3 / limit-modes / me=3 / subme=3 / merange=57 / temporal-mvp / weightp / no-weightb / no-analyze-src-pics / deblock=-3:-3 / no-sao / no-sao-non-deblock / rd=4 / no-early-skip / rskip / no-fast-intra / no-tskip-fast / no-cu-lossless / no-b-intra / no-splitrd-skip / rdpenalty=0 / psy-rd=2.00 / psy-rdoq=1.00 / no-rd-refine / no-lossless / cbqpoffs=0 / crqpoffs=0 / rc=crf / crf=22.5 / qcomp=0.60 / qpstep=4 / stats-write=0 / stats-read=0 / vbv-maxrate=160000 / vbv-bufsize=160000 / vbv-init=0.9 / crf-max=0.0 / crf-min=0.0 / ipratio=1.40 / pbratio=1.30 / aq-mode=1 / aq-strength=1.00 / cutree / zone-count=0 / no-strict-cbr / qg-size=32 / no-rc-grain / qpmax=69 / qpmin=0 / no-const-vbv / sar=1 / overscan=0 / videoformat=5 / range=0 / colorprim=1 / transfer=1 / colormatrix=1 / chromaloc=0 / display-window=0 / max-cll=0,0 / min-luma=0 / max-luma=1023 / log2-max-poc-lsb=8 / vui-timing-info / vui-hrd-info / slices=1 / no-opt-qp-pps / no-opt-ref-list-length-pps / no-multi-pass-opt-rps / scenecut-bias=0.05 / no-opt-cu-delta-qp / no-aq-motion / no-hdr / no-hdr-opt / no-dhdr10-opt / no-idr-recovery-sei / analysis-reuse-level=5 / scale-factor=0 / refine-intra=0 / refine-inter=0 / refine-mv=0 / no-limit-sao / ctu-info=0 / no-lowpass-dct / refine-mv-type=0 / copy-pic=1 / max-ausize-factor=1.0 / no-dynamic-refine / no-single-sei
Default : Yes
Forced : No
Color range : Limited
Color primaries : BT.709
Transfer characteristics : BT.709
Matrix coefficients : BT.709

Audio #1
ID : 2
Format : MLP FBA 16-ch
Format/Info : Meridian Lossless Packing FBA with 16-channel presentation
Commercial name : Dolby TrueHD with Dolby Atmos
Codec ID : A_TRUEHD
Duration : 1 h 23 min
Bit rate mode : Variable
Bit rate : 4 417 kb/s
Maximum bit rate : 6 318 kb/s
Channel(s) : 8 channels
Channel layout : L R C LFE Ls Rs Lb Rb
Sampling rate : 48.0 kHz
Frame rate : 1 200.000 FPS (40 SPF)
Compression mode : Lossless
Stream size : 2.57 GiB (10%)
Title : Atmos 7.1 (Auro-3D 13.1)
Language : English
Default : Yes
Forced : No
Number of dynamic objects : 13
Bed channel count : 1 channel
Bed channel configuration : LFE

Audio #2
ID : 3
Format : AC-3
Format/Info : Audio Coding 3
Commercial name : Dolby Digital
Codec ID : A_AC3
Duration : 1 h 23 min
Bit rate mode : Constant
Bit rate : 640 kb/s
Channel(s) : 6 channels
Channel layout : L R C LFE Ls Rs
Sampling rate : 48.0 kHz
Frame rate : 31.250 FPS (1536 SPF)
Bit depth : 16 bits
Compression mode : Lossy
Stream size : 382 MiB (1%)
Title : AC-3 5.1
Language : English
Service kind : Complete Main
Default : No
Forced : No

Audio #3
ID : 4
Format : DTS XLL
Format/Info : Digital Theater Systems
Commercial name : DTS-HD Master Audio
Codec ID : A_DTS
Duration : 1 h 23 min
Bit rate mode : Variable
Bit rate : 4 873 kb/s
Channel(s) : 8 channels
Channel layout : C L R LFE Lb Rb Lss Rss
Sampling rate : 48.0 kHz
Frame rate : 93.750 FPS (512 SPF)
Bit depth : 24 bits
Compression mode : Lossless
Stream size : 2.84 GiB (11%)
Title : DTS-HD MA 7.1
Language : English
Default : No
Forced : No

Audio #4
ID : 5
Format : DTS XLL
Format/Info : Digital Theater Systems
Commercial name : DTS-HD Master Audio
Codec ID : A_DTS
Duration : 1 h 23 min
Bit rate mode : Variable
Bit rate : 1 564 kb/s
Channel(s) : 2 channels
Channel layout : L R
Sampling rate : 48.0 kHz
Frame rate : 93.750 FPS (512 SPF)
Bit depth : 16 bits
Compression mode : Lossless
Stream size : 933 MiB (4%)
Title : DTS-HD MA 2.0
Language : English
Default : No
Forced : No

Audio #5
ID : 6
Format : DTS XLL
Format/Info : Digital Theater Systems
Commercial name : DTS-HD Master Audio
Codec ID : A_DTS
Duration : 1 h 23 min
Bit rate mode : Variable
Bit rate : 819 kb/s
Channel(s) : 1 channel
Channel layout : C
Sampling rate : 48.0 kHz
Frame rate : 93.750 FPS (512 SPF)
Bit depth : 16 bits
Compression mode : Lossless
Stream size : 488 MiB (2%)
Title : DTS-HD MA 1.0
Language : English
Default : No
Forced : No

Audio #6
ID : 7
Format : AC-3
Format/Info : Audio Coding 3
Commercial name : Dolby Digital
Codec ID : A_AC3
Duration : 1 h 23 min
Bit rate mode : Constant
Bit rate : 192 kb/s
Channel(s) : 2 channels
Channel layout : L R
Sampling rate : 48.0 kHz
Frame rate : 31.250 FPS (1536 SPF)
Bit depth : 16 bits
Compression mode : Lossy
Stream size : 114 MiB (0%)
Title : Commentary with documentor David Gregory, Art director Robert A. Burns and cast members Marilyn Burns, Paul Partain and Allen Danziger
Language : English
Service kind : Complete Main
Default : No
Forced : No

Audio #7
ID : 8
Format : AC-3
Format/Info : Audio Coding 3
Commercial name : Dolby Digital
Codec ID : A_AC3
Duration : 1 h 23 min
Bit rate mode : Constant
Bit rate : 192 kb/s
Channel(s) : 2 channels
Channel layout : L R
Sampling rate : 48.0 kHz
Frame rate : 31.250 FPS (1536 SPF)
Bit depth : 16 bits
Compression mode : Lossy
Stream size : 114 MiB (0%)
Title : Commentary with director Tobe Hooper, cinematographer Daniel Pearl and actor Gunner Hansen
Language : English
Service kind : Complete Main
Default : No
Forced : No

Audio #8
ID : 9
Format : AC-3
Format/Info : Audio Coding 3
Commercial name : Dolby Digital
Codec ID : A_AC3
Duration : 1 h 23 min
Bit rate mode : Constant
Bit rate : 192 kb/s
Channel(s) : 2 channels
Channel layout : L R
Sampling rate : 48.0 kHz
Frame rate : 31.250 FPS (1536 SPF)
Bit depth : 16 bits
Compression mode : Lossy
Stream size : 114 MiB (0%)
Title : Commentary with director Tobe Hooper and documentor David Gregory
Language : English
Service kind : Complete Main
Default : No
Forced : No

Audio #9
ID : 10
Format : AC-3
Format/Info : Audio Coding 3
Commercial name : Dolby Digital
Codec ID : A_AC3
Duration : 1 h 23 min
Bit rate mode : Constant
Bit rate : 192 kb/s
Channel(s) : 2 channels
Channel layout : L R
Sampling rate : 48.0 kHz
Frame rate : 31.250 FPS (1536 SPF)
Bit depth : 16 bits
Compression mode : Lossy
Stream size : 114 MiB (0%)
Title : Commentary with cinematographer Daniel Pearl, editor J. Larry Carroll and sound recordist Ted Nicolaou
Language : English
Service kind : Complete Main
Default : No
Forced : No

Text #1
ID : 11
Format : UTF-8
Codec ID : S_TEXT/UTF8
Codec ID/Info : UTF-8 Plain Text
Duration : 1 h 19 min
Bit rate : 39 b/s
Count of elements : 636
Stream size : 22.8 KiB (0%)
Title : Full SRT
Language : English
Default : No
Forced : No

Text #2
ID : 12
Format : PGS
Muxing mode : zlib
Codec ID : S_HDMV/PGS
Codec ID/Info : Picture based subtitle format used on BDs/HD-DVDs
Duration : 1 h 19 min
Bit rate : 22.0 kb/s
Count of elements : 1268
Stream size : 12.4 MiB (0%)
Title : Full
Language : English
Default : No
Forced : No

Text #3
ID : 13
Format : PGS
Muxing mode : zlib
Codec ID : S_HDMV/PGS
Codec ID/Info : Picture based subtitle format used on BDs/HD-DVDs
Duration : 1 h 19 min
Bit rate : 23.2 kb/s
Count of elements : 1250
Stream size : 13.1 MiB (0%)
Language : German
Default : No
Forced : No

Text #4
ID : 14
Format : PGS
Muxing mode : zlib
Codec ID : S_HDMV/PGS
Codec ID/Info : Picture based subtitle format used on BDs/HD-DVDs
Duration : 1 h 23 min
Bit rate : 55.5 kb/s
Count of elements : 2424
Stream size : 33.0 MiB (0%)
Title : Commentary with documentor David Gregory, Art director Robert A. Burns and cast members Marilyn Burns, Paul Partain and Allen Danziger
Language : German
Default : No
Forced : No

Text #5
ID : 15
Format : PGS
Muxing mode : zlib
Codec ID : S_HDMV/PGS
Codec ID/Info : Picture based subtitle format used on BDs/HD-DVDs
Duration : 1 h 23 min
Bit rate : 55.5 kb/s
Count of elements : 2292
Stream size : 33.0 MiB (0%)
Title : Commentary with director Tobe Hooper, cinematographer Daniel Pearl and actor Gunner Hansen
Language : German
Default : No
Forced : No

Text #6
ID : 16
Format : PGS
Muxing mode : zlib
Codec ID : S_HDMV/PGS
Codec ID/Info : Picture based subtitle format used on BDs/HD-DVDs
Duration : 1 h 23 min
Bit rate : 38.0 kb/s
Count of elements : 1736
Stream size : 22.6 MiB (0%)
Title : Commentary with director Tobe Hooper and documentor David Gregory
Language : German
Default : No
Forced : No

Text #7
ID : 17
Format : PGS
Muxing mode : zlib
Codec ID : S_HDMV/PGS
Codec ID/Info : Picture based subtitle format used on BDs/HD-DVDs
Duration : 1 h 23 min
Bit rate : 49.5 kb/s
Count of elements : 2232
Stream size : 29.4 MiB (0%)
Title : Commentary with cinematographer Daniel Pearl, editor J. Larry Carroll and sound recordist Ted Nicolaou
Language : German
Default : No
Forced : No

Menu
00:00:00.000 : :00:00:00.000
00:04:50.457 : :00:04:50.457
00:10:12.487 : :00:10:12.487
00:18:42.830 : :00:18:42.830
00:24:04.985 : :00:24:04.985
00:34:25.563 : :00:34:25.563
00:40:27.842 : :00:40:27.842
00:47:03.195 : :00:47:03.195
00:58:03.563 : :00:58:03.563
01:06:22.687 : :01:06:22.687
01:11:39.253 : :01:11:39.253
01:18:38.964 : :01:18:38.964
01:21:55.160 : :01:21:55.160



1 个附件 售价 大小 下载 时间

The.Texas.Chain.Saw.Massacre.1974.RERIP.2160p.BluRay.x265.10bit.SDR.TrueHD.7.1.Atmos-IAMABLE[btbtt.me].torrent 0 金币 64.50K 385 次 8天前

#1楼
发帖时间:2018-11-08 23:58:30   |   回复数:3
liyouchai
超凡入圣№
谢谢楼主分享资源
8天前 #2楼
911degrees
隐世仙人♂
非常感谢,谢谢分享
8天前 #3楼
blue23
隐世仙人♂
感谢楼主分享
5天前 #4楼
游客组