aoloffline
版主

[2010] [欧美] [犯罪] [4K-Remux] [ВТ下载]神探夏洛克 Sherlock.S01.2160p.BluRay.REMUX.HEVC.DTS-HD.MA.5.1-FGT 113GB

-->

Sherlock.S01.2160p.BluRay.REMUX.HEVC.DTS-HD.MA.5.1-FGT

◎译  名 神探夏洛克 第一季 / 当夏洛克遇见华生 / 新世纪福尔摩斯(港) / 新福尔摩斯(港) / 新编夏洛克 第一季 / 歇洛克 / 福尔摩斯新传(港)

◎片  名 Sherlock Season 1

◎年  代 2010

◎产  地 英国

◎类  别 剧情 / 悬疑 / 犯罪

◎语  言 英语

◎上映日期 2010-07-25(英国)

◎IMDb评分 9.2/10 from 666834 users

◎IMDb链接 http://www.imdb.com/title/tt1475582

◎豆瓣评分 9.3/10 from 253994 users

◎豆瓣链接 https://movie.douban.com/subject/3986493/

◎BT之家整理 http://www.btbtt.us/

◎集  数 3

◎片  长 90分钟

◎导  演 保罗·麦奎根 Paul McGuigan / 尤洛斯·林 Euros Lyn

◎编  剧 阿瑟·柯南·道尔 Arthur Conan Doyle / 马克·加蒂斯 Mark Gatiss / 史蒂文·莫法特 Steven Moffat / 史蒂夫·汤普森 Steve Thompson

◎主  演 本尼迪克特·康伯巴奇 Benedict Cumberbatch

      马丁·弗瑞曼 Martin Freeman

      拉珀特·格雷夫斯 Rupert Graves

      安德鲁·斯科特 Andrew Scott

      马克·加蒂斯 Mark Gatiss

      尤娜·斯塔布斯 Una Stubbs

      露·布瑞丽 Loo Brealey

      菲尔·戴维斯 Philip Davis




◎简  介  


  《神探夏洛克》是一部由BBC出品的英国迷你电视剧,该剧将原著的故事背景从19世纪大英帝国国势鼎盛的时期搬到了21世纪繁华热闹的大都市中。

这一次夏洛克·福尔摩斯(本尼迪克特·康伯巴奇 Benedict Cumberbatch 饰)不仅是著名大侦探更是一名时尚潮人。和他的 好友兼得力助手约翰·华生(马丁·弗瑞曼 Martin Freeman 饰)分别经历了离奇市民自杀案件、黑帮走私事件和倒计时炸弹杀人案。每一个案件看似独立其实都有联系,两人每解决一个案子,就又会出现新的难题和的受害无辜百姓。经过抽丝剥茧,幕后黑手莫里亚蒂(安德鲁·斯科特 Andrew Scott 饰)终于浮出水面,最后一集的交锋中,被炸弹和狙击枪威胁的夏洛克和华生该如何脱身,只能等到第二季让BBC来告诉大家了。



Video
ID : 1
Format : HEVC
Format/Info : High Efficiency Video Coding
Commercial name : HDR10
Format profile : Main 10@L5.1@High
Codec ID : V_MPEGH/ISO/HEVC
Duration : 1 h 33 min
Bit rate : 55.2 Mb/s
Width : 3 840 pixels
Height : 2 160 pixels
Display aspect ratio : 16:9
Frame rate mode : Constant
Frame rate : 23.976 (24000/1001) FPS
Color space : YUV
Chroma subsampling : 4:2:0 (Type 2)
Bit depth : 10 bits
Bits/(Pixel*Frame) : 0.278
Stream size : 35.9 GiB (93%)
Title : Sherlock.S01E03.The.Great.Game.2160p.BluRay.REMUX.HEVC.DTS-HD.MA.5.1-FGT
Default : Yes
Forced : No
Color range : Limited
Color primaries : BT.2020
Transfer characteristics : PQ
Matrix coefficients : BT.2020 non-constant
Mastering display color primaries : Display P3
Mastering display luminance : min: 0.0050 cd/m2, max: 4000 cd/m2
Maximum Content Light Level : 10000 cd/m2
Maximum Frame-Average Light Level : 1035 cd/m2

Audio #1
ID : 2
Format : DTS XLL
Format/Info : Digital Theater Systems
Commercial name : DTS-HD Master Audio
Codec ID : A_DTS
Duration : 1 h 33 min
Bit rate mode : Variable
Bit rate : 2 315 kb/s
Channel(s) : 6 channels
Channel layout : C L R Ls Rs LFE
Sampling rate : 48.0 kHz
Frame rate : 93.750 FPS (512 SPF)
Bit depth : 16 bits
Compression mode : Lossless
Stream size : 1.51 GiB (4%)
Title : Sherlock.S01E03.The.Great.Game.2160p.BluRay.REMUX.HEVC.DTS-HD.MA.5.1-FGT
Language : English
Default : Yes
Forced : No

Audio #2
ID : 3
Format : DTS XLL
Format/Info : Digital Theater Systems
Commercial name : DTS-HD Master Audio
Codec ID : A_DTS
Duration : 1 h 33 min
Bit rate mode : Variable
Bit rate : 1 714 kb/s
Channel(s) : 2 channels
Channel layout : L R
Sampling rate : 48.0 kHz
Frame rate : 93.750 FPS (512 SPF)
Bit depth : 16 bits
Compression mode : Lossless
Stream size : 1.11 GiB (3%)
Title : Sherlock.S01E03.The.Great.Game.2160p.BluRay.REMUX.HEVC.DTS-HD.MA.5.1-FGT
Language : English
Default : No
Forced : No

Text
ID : 4
Format : PGS
Muxing mode : zlib
Codec ID : S_HDMV/PGS
Codec ID/Info : Picture based subtitle format used on BDs/HD-DVDs
Duration : 1 h 32 min
Bit rate : 49.0 kb/s
Count of elements : 3184
Stream size : 32.4 MiB (0%)
Language : English
Default : Yes
Forced : No

Menu
00:00:00.000 : :Chapter 1
00:11:25.685 : :Chapter 2
00:23:21.191 : :Chapter 3
00:35:51.190 : :Chapter 4
00:48:38.165 : :Chapter 5
01:00:17.030 : :Chapter 6
01:10:44.240 : :Chapter 7
01:23:11.736 : :Chapter 8



1 个附件 售价 大小 下载 时间

Sherlock.S01.2160p.BluRay.REMUX.HEVC.DTS-HD.MA.5.1-FGT[btbtt.me].torrent 0 金币 284.75K 861 次 8天前

#1楼
发帖时间:2018-11-09 00:16:54   |   回复数:3
chulps
一代宗师
~ 感谢分享 ~ 感谢 ~
8天前 #2楼
liyouchai
超凡入圣№
谢谢楼主分享资源
8天前 #3楼
911degrees
隐世仙人♂
非常感谢,谢谢分享
8天前 #4楼
游客组