aoloffline
版主

[更 早] [欧美] [动作] [BD-1080P] [ВТ下载]空军一号 1997.RE.1080p.BluRay.x264.DTS-SWTYBLZ 12.9GB

-->

Air.Force.One.1997.REMASTERED.1080p.BluRay.x264.DTS-SWTYBLZ

◎译  名 空军一号 / AFO

◎片  名 Air Force One

◎年  代 1997

◎产  地 美国 / 德国

◎类  别 剧情 / 动作 / 惊悚

◎语  言 英语 / 俄语

◎上映日期 1997-07-21(加州洛杉矶世纪城首映) / 1997-07-25(美国)

◎IMDb评分 6.5/10 from 163061 users

◎IMDb链接 http://www.imdb.com/title/tt0118571

◎豆瓣评分 7.5/10 from 55061 users

◎豆瓣链接 https://movie.douban.com/subject/1293537/

◎BT之家整理 http://www.btbtt.us/

◎片  长 124分钟

◎导  演 Wolfgang Petersen

◎编  剧 Andrew W. Marlowe

◎主  演 哈里森·福特 Harrison Ford

      加里·奥德曼 Gary Oldman

      格伦·克洛斯 Glenn Close

      温迪·古逊 Wendy Crewson

      利塞尔·马修斯 Liesel Matthews

      保罗·吉尔福伊尔 Paul Guilfoyle

      山德·贝克利 Xander Berkeley

      威廉姆·H·梅西 William H. Macy

      迪恩·斯托克维尔 Dean Stockwell

      汤姆·埃沃雷特 Tom Everett

      尤尔根·普洛斯诺 Jürgen Prochnow

      Donna Bullock

      Michael Ray Miller

      Carl Weintraub

      Elester Latham

      埃利亚·巴斯金 Elya Baskin

      Levan Uchaneishvili

      David Vadim

      安德鲁·迪沃夫 Andrew Divoff

      伊利亚·沃里克 Ilia Volok

      Chris Howell

      斯宾塞·加雷特 Spencer Garrett

      比尔·斯米托洛维奇 Bill Smitrovich

      菲利浦·贝克·霍尔 Philip Baker Hall

      Albert Owens

      威拉德·E·普 Willard E. Pugh

      Alan Woolf

      丹·肖尔 Dan Shor

      David Gianopoulos

      格伦·莫肖尔 Glenn Morshower

      Richard Doyle

      唐·麦克马纳斯 Don McManus

      J.A. Preston




◎简  介  


  俄美两国策划一起反恐行动,派出特种部队擒获了掌握核武器的哈萨克王国独裁者伊万•雷迪克将军(Jurgen Prochnow 饰)。数周后的庆功宴上,曾为越战老兵的美国总统詹姆斯•马舍尔(哈里森•福特Harrison Ford 饰)针对恐怖分子和独裁政权发表了强硬而精彩的演说。莫斯科之旅圆满结束,总统一家及其政要乘空军一号返回美国,同行的还有艾格(加里•奥德曼 Gary Oldman 饰)带队的俄罗斯媒体工作人员。

安全人员百密一疏,艾格的真实身份是效忠于雷迪克将军的恐怖分子。飞机起飞后,艾格和同伴们劫持飞机,绑架美国政要及总统家人,只有詹姆斯侥幸逃脱。恐怖分子要求俄美释放雷迪克将军,而藏身空军一号中的詹姆斯则和这群匪徒展开殊死决斗……


◎获奖情况  


  第70届奥斯卡金像奖(1998)

  最佳剪辑(提名) 理查德·弗朗西斯-布鲁斯

  最佳音响(提名) 道格·亨普希尔 / 保罗·马瑟 / 基思·A·韦斯特 / 里克·克莱恩


  第21届日本电影学院奖(1998)

  最佳外语片(提名)


Video
ID : 1
Format : AVC
Format/Info : Advanced Video Codec
Format profile : High@L4.1
Format settings : CABAC / 5 Ref Frames
Format settings, CABAC : Yes
Format settings, ReFrames : 5 frames
Codec ID : V_MPEG4/ISO/AVC
Duration : 2 h 4 min
Bit rate : 13.3 Mb/s
Width : 1 920 pixels
Height : 800 pixels
Display aspect ratio : 2.40:1
Frame rate mode : Constant
Frame rate : 23.976 (24000/1001) FPS
Color space : YUV
Chroma subsampling : 4:2:0
Bit depth : 8 bits
Scan type : Progressive
Bits/(Pixel*Frame) : 0.362
Stream size : 11.6 GiB (90%)
Title : Air.Force.One.1997.REMASTERED.1080p.BluRay.x264.DTS-SWTYBLZ
Writing library : x264 core 157 r2935 545de2f
Encoding settings : cabac=1 / ref=5 / deblock=1:-1:-1 / analyse=0x3:0x133 / me=umh / subme=10 / psy=1 / psy_rd=1.00:0.15 / mixed_ref=1 / me_range=48 / chroma_me=1 / trellis=2 / 8x8dct=1 / cqm=0 / deadzone=21,11 / fast_pskip=1 / chroma_qp_offset=-3 / threads=25 / lookahead_threads=4 / sliced_threads=0 / nr=0 / decimate=0 / interlaced=0 / bluray_compat=0 / constrained_intra=0 / bframes=8 / b_pyramid=2 / b_adapt=2 / b_bias=0 / direct=3 / weightb=1 / open_gop=0 / weightp=2 / keyint=250 / keyint_min=23 / scenecut=40 / intra_refresh=0 / rc_lookahead=60 / rc=crf / mbtree=1 / crf=19.0 / qcomp=0.60 / qpmin=0 / qpmax=69 / qpstep=4 / ip_ratio=1.40 / aq=1:1.00
Language : English
Default : Yes
Forced : No

Audio
ID : 2
Format : DTS
Format/Info : Digital Theater Systems
Codec ID : A_DTS
Duration : 2 h 4 min
Bit rate mode : Constant
Bit rate : 1 509 kb/s
Channel(s) : 6 channels
Channel layout : C L R Ls Rs LFE
Sampling rate : 48.0 kHz
Frame rate : 93.750 FPS (512 SPF)
Bit depth : 24 bits
Compression mode : Lossy
Stream size : 1.31 GiB (10%)
Title : Air.Force.One.1997.REMASTERED.1080p.BluRay.x264.DTS-SWTYBLZ
Language : English
Default : Yes
Forced : No

Text #1
ID : 3
Format : UTF-8
Codec ID : S_TEXT/UTF8
Codec ID/Info : UTF-8 Plain Text
Duration : 1 h 17 min
Bit rate : 2 b/s
Count of elements : 54
Stream size : 1.21 KiB (0%)
Title : FORCED
Language : English
Default : Yes
Forced : Yes

Text #2
ID : 4
Format : UTF-8
Codec ID : S_TEXT/UTF8
Codec ID/Info : UTF-8 Plain Text
Duration : 1 h 53 min
Bit rate : 56 b/s
Count of elements : 1249
Stream size : 46.9 KiB (0%)
Language : English
Default : No
Forced : No

Text #3
ID : 5
Format : UTF-8
Codec ID : S_TEXT/UTF8
Codec ID/Info : UTF-8 Plain Text
Duration : 1 h 53 min
Bit rate : 56 b/s
Count of elements : 1245
Stream size : 46.8 KiB (0%)
Title : SDH
Language : English
Default : No
Forced : No

Menu
00:00:00.000 : :Chapter 1
00:09:18.599 : :Chapter 2
00:15:38.145 : :Chapter 3
00:19:59.448 : :Chapter 4
00:29:07.746 : :Chapter 5
00:33:28.131 : :Chapter 6
00:39:47.718 : :Chapter 7
00:47:17.125 : :Chapter 8
00:54:42.904 : :Chapter 9
01:01:44.200 : :Chapter 10
01:08:45.037 : :Chapter 11
01:16:33.005 : :Chapter 12
01:26:26.389 : :Chapter 13
01:33:02.660 : :Chapter 14
01:41:58.821 : :Chapter 15
01:50:53.688 : :Chapter 16



1 个附件 售价 大小 下载 时间

Air.Force.One.1997.REMASTERED.1080p.BluRay.x264.DTS-SWTYBLZ[btbtt.me].torrent 0 金币 65.07K 973 次 7天前

#1楼
发帖时间:2018-11-09 11:26:25   |   回复数:4
igefcufppt
武林高手
当年的福特还能打
7天前 #2楼
911degrees
隐世仙人♂
非常感谢,谢谢分享
7天前 #3楼
liyouchai
超凡入圣№
谢谢楼主分享资源
7天前 #4楼
blue23
隐世仙人♂
感谢楼主分享
5天前 #5楼
游客组