aoloffline
版主

[2017] [大陆] [动画] [WEB-1080P] [ВТ下载]大世界 Have.a.Nice.Day.2017.1080p.AMZN.WEBRip.DDP5.1.x264-Cinefeel 1.2GB

-->

Have.a.Nice.Day.2017.CHINESE.1080p.AMZN.WEBRip.DDP5.1.x264-Cinefeel



◎译  名 Have a Nice Day / 好极了

◎片  名 大世界

◎年  代 2017

◎产  地 中国大陆

◎类  别 动画

◎语  言 汉语普通话

◎上映日期 2017-02-17(柏林电影节) / 2018-01-12(中国大陆)

◎IMDb评分 6.5/10 from 1116 users

◎IMDb链接 http://www.imdb.com/title/tt6451304

◎豆瓣评分 7.0/10 from 32809 users

◎豆瓣链接 https://movie.douban.com/subject/26954003/

◎BT之家整理 http://www.btbtt.us/

◎片  长 77分钟

◎导  演 刘健 Jian Liu

◎编  剧 刘健 Jian Liu

◎主  演 朱昌龙 Changlong Zhu

      曹寇 Kou Cao

      杨思明 Siming Yang

      马晓峰 Xiaofeng Ma

      曹恺 Kai Cao

      刘健 Jian Liu

      薛峰 Feng Xue

      朱虹 Hong Zhu

      王达 Da Wang

      施海涛 Haitao Shi

      郑懿 Yi Zheng





◎简  介  


  南方小城,大雨将至。工地司机小张为了挽救和女友的爱情,抢劫了老板的巨款,引发连锁反应。几股势力纷纷对小张展开追逐。原本没有关系的他们,命运产生了交集。在一番阴差阳错、啼笑皆非的交手之后,他们迎来了意想不到的结局,命运和他们开了一个大大的玩笑。历时三年,导演刘健一人身兼多职,用独特的画风描绘了在一个发生在一天之内的黑色幽默故事,呈现出一幅独特的时代风景画和社会众生相。


◎获奖情况  


  第67届柏林国际电影节(2017)

  金熊奖 最佳影片(提名) 刘健


  第54届台北金马影展(2017)

  金马奖 最佳原著剧本(提名) 刘健

  金马奖 最佳原创歌曲(提名) 刘健

  金马奖 最佳动画长片 刘健


  第1届平遥国际电影展(2017)

  费穆荣誉最佳导演 刘健


  第4届豆瓣电影年度榜单(2017)

  年度华语独立佳作(提名)



Video
ID : 1
Format : AVC
Format/Info : Advanced Video Codec
Format profile : High@L4
Format settings : CABAC / 4 Ref Frames
Format settings, CABAC : Yes
Format settings, ReFrames : 4 frames
Codec ID : V_MPEG4/ISO/AVC
Duration : 1 h 14 min
Bit rate : 1 678 kb/s
Width : 1 920 pixels
Height : 1 080 pixels
Display aspect ratio : 16:9
Frame rate mode : Constant
Frame rate : 25.000 FPS
Color space : YUV
Chroma subsampling : 4:2:0
Bit depth : 8 bits
Scan type : Progressive
Bits/(Pixel*Frame) : 0.032
Stream size : 895 MiB (72%)
Default : Yes
Forced : No
Color range : Limited
Color primaries : BT.709
Transfer characteristics : BT.709
Matrix coefficients : BT.709

Audio
ID : 2
Format : E-AC-3
Format/Info : Enhanced AC-3
Commercial name : Dolby Digital Plus
Codec ID : A_EAC3
Duration : 1 h 14 min
Bit rate mode : Constant
Bit rate : 640 kb/s
Channel(s) : 6 channels
Channel layout : L R C LFE Ls Rs
Sampling rate : 48.0 kHz
Frame rate : 31.250 FPS (1536 SPF)
Compression mode : Lossy
Stream size : 341 MiB (28%)
Language : Chinese
Service kind : Complete Main
Default : Yes
Forced : No

Text
ID : 3
Format : UTF-8
Codec ID : S_TEXT/UTF8
Codec ID/Info : UTF-8 Plain Text
Duration : 1 h 12 min
Bit rate : 38 b/s
Count of elements : 597
Stream size : 20.4 KiB (0%)
Language : English
Default : No
Forced : No



1 个附件 售价 大小 下载 时间

Have.a.Nice.Day.2017.CHINESE.1080p.AMZN.WEBRip.DDP5.1.x264-Cinefeel[btbtt.me].torrent 0 金币 24.70K 732 次 7天前

#1楼
发帖时间:2018-11-09 11:43:19   |   回复数:4
911degrees
隐世仙人♂
非常感谢,谢谢分享
7天前 #2楼
liyouchai
超凡入圣№
谢谢楼主分享资源
7天前 #3楼
kola13
武林高手
感谢分享
7天前 #4楼
blue23
隐世仙人♂
感谢楼主分享
5天前 #5楼
游客组