aoloffline
版主

[2016] [欧美] [剧情] [WEB-1080P] [ВТ下载]法外游侠 Lawless.Range.2016.1080p.AMZN.WEBRip.DDP5.1.x264-SiGMA 5.8GB

-->


◎译  名 法外游侠 / Lawless Range

◎片  名 San Patricios

◎年  代 2014

◎产  地 美国

◎类  别 剧情

◎语  言 英语

◎上映日期 2016-01-05(美国)

◎IMDb评分 5.2/10 from 255 users

◎IMDb链接 http://www.imdb.com/title/tt3060390

◎BT之家整理 http://www.btbtt.us/

◎片  长 85分钟

◎导  演 Sean McGinly

◎编  剧 Adair Cole

◎主  演 Daniella Alonso

      Beau Bridges

      Kris Kristofferson




◎简  介  


  Brothers, Sean and Tommy Donnelly live and work in modern day Texas. Tommy has always been troubled and Sean has always been there to help him but when Tommy gets himself $6,000 in debt there's not much Sean can do. The money is owed to some very dangerous people and neither Sean nor Tommy has a spare dime. Worse, at every turn, Tommy manages to find a way to exacerbate their already difficult position. The situation escalates to the point where Sean is faced with a decision: stand by his brother or give up on him once and for all.


Video
ID : 1
Format : AVC
Format/Info : Advanced Video Codec
Format profile : High@L4
Format settings : CABAC / 4 Ref Frames
Format settings, CABAC : Yes
Format settings, ReFrames : 4 frames
Codec ID : V_MPEG4/ISO/AVC
Duration : 1 h 25 min
Bit rate mode : Constant
Bit rate : 9 514 kb/s
Nominal bit rate : 10 000 kb/s
Width : 1 920 pixels
Height : 800 pixels
Display aspect ratio : 2.40:1
Frame rate mode : Constant
Frame rate : 23.976 (24000/1001) FPS
Color space : YUV
Chroma subsampling : 4:2:0
Bit depth : 8 bits
Scan type : Progressive
Bits/(Pixel*Frame) : 0.258
Stream size : 5.65 GiB (97%)
Language : English
Default : Yes
Forced : No
Color range : Limited
Color primaries : BT.709
Transfer characteristics : BT.709
Matrix coefficients : BT.709

Audio
ID : 2
Format : E-AC-3
Format/Info : Enhanced AC-3
Commercial name : Dolby Digital Plus
Codec ID : A_EAC3
Duration : 1 h 25 min
Bit rate mode : Constant
Bit rate : 256 kb/s
Channel(s) : 6 channels
Channel layout : L R C LFE Ls Rs
Sampling rate : 48.0 kHz
Frame rate : 31.250 FPS (1536 SPF)
Compression mode : Lossy
Stream size : 156 MiB (3%)
Language : English
Service kind : Complete Main
Default : Yes
Forced : No

Text
ID : 3
Format : UTF-8
Codec ID : S_TEXT/UTF8
Codec ID/Info : UTF-8 Plain Text
Duration : 1 h 22 min
Bit rate : 40 b/s
Count of elements : 1052
Stream size : 24.4 KiB (0%)
Title : English (SDH)
Language : English
Default : No
Forced : No




1 个附件 售价 大小 下载 时间

Lawless.Range.2016.1080p.AMZN.WEBRip.DDP5.1.x264-SiGMA[btbtt.me].torrent 0 金币 58.56K 266 次 7天前

#1楼
发帖时间:2018-11-09 11:48:06   |   回复数:3
911degrees
隐世仙人♂
非常感谢,谢谢分享
7天前 #2楼
liyouchai
超凡入圣№
谢谢楼主分享资源
7天前 #3楼
blue23
隐世仙人♂
感谢楼主分享
5天前 #4楼
游客组