aoloffline
版主

[更 早] [欧美] [剧情] [WEB-1080P] [ВТ下载]蓝色的时光 The.Blue.Hour.1971.1080p.AMZN.WEBRip.DDP2.0.x264-SiGMA 8.61GB

-->

The.Blue.Hour.1971.1080p.AMZN.WEBRip.DDP2.0.x264-SiGMA

◎译  名 蓝色的时光

◎片  名 The Blue Hour

◎年  代 1971

◎产  地 美国

◎类  别 剧情

◎语  言 英语

◎IMDb评分 3.6/10 from 43 users

◎IMDb链接 http://www.imdb.com/title/tt3369134

◎BT之家整理 http://www.btbtt.us/

◎导  演 Sergei Goncharoff, Ron Nicholas

◎编  剧 Carl K. Hittleman

◎主  演 Anne Chapman, Nicholas Wayne, Mary Beth Hughes




◎简  介  


  A young girl with a shady past travels to Los Angeles and finds herself getting mixed up in the seedy and dark underbelly of the city.


Video
ID : 1
Format : AVC
Format/Info : Advanced Video Codec
Format profile : High@L4
Format settings : CABAC / 4 Ref Frames
Format settings, CABAC : Yes
Format settings, ReFrames : 4 frames
Codec ID : V_MPEG4/ISO/AVC
Duration : 1 h 23 min
Bit rate : 14.6 Mb/s
Width : 1 920 pixels
Height : 1 040 pixels
Display aspect ratio : 1.85:1
Frame rate mode : Constant
Frame rate : 23.976 (24000/1001) FPS
Color space : YUV
Chroma subsampling : 4:2:0
Bit depth : 8 bits
Scan type : Progressive
Bits/(Pixel*Frame) : 0.305
Stream size : 8.48 GiB (98%)
Default : Yes
Forced : No
Color range : Limited
Color primaries : BT.709
Transfer characteristics : BT.709
Matrix coefficients : BT.709

Audio
ID : 2
Format : E-AC-3
Format/Info : Enhanced AC-3
Commercial name : Dolby Digital Plus
Codec ID : A_EAC3
Duration : 1 h 23 min
Bit rate mode : Constant
Bit rate : 224 kb/s
Channel(s) : 2 channels
Channel layout : L R
Sampling rate : 48.0 kHz
Frame rate : 31.250 FPS (1536 SPF)
Compression mode : Lossy
Stream size : 133 MiB (2%)
Language : English
Service kind : Complete Main
Default : Yes
Forced : No

Text
ID : 3
Format : UTF-8
Codec ID : S_TEXT/UTF8
Codec ID/Info : UTF-8 Plain Text
Duration : 1 h 22 min
Bit rate : 29 b/s
Count of elements : 630
Stream size : 17.6 KiB (0%)
Title : English (SDH)
Language : English
Default : No
Forced : No



1 个附件 售价 大小 下载 时间

The.Blue.Hour.1971.1080p.AMZN.WEBRip.DDP2.0.x264-SiGMA[btbtt.me].torrent 0 金币 86.60K 343 次 7天前

#1楼
发帖时间:2018-11-09 12:05:47   |   回复数:3
911degrees
隐世仙人♂
非常感谢,谢谢分享
7天前 #2楼
liyouchai
超凡入圣№
谢谢楼主分享资源
7天前 #3楼
blue23
隐世仙人♂
感谢楼主分享
5天前 #4楼
游客组