aoloffline
版主

[更 早] [欧美] [恐怖] [BD-4K] [ВТ下载]天魔回魂 1987.2160p.BluRay.x264.8bit.SDR.DTS-HD.MA.5.1-SWTYBLZ 45GB

-->

Prince.of.Darkness.1987.2160p.BluRay.x264.8bit.SDR.DTS-HD.MA.5.1-SWTYBLZ

◎译  名 天魔回魂 / 沉睡百万年

◎片  名 Prince of Darkness

◎年  代 1987

◎产  地 美国

◎类  别 科幻 / 恐怖

◎语  言 英语

◎上映日期 1988-03-11

◎IMDb评分 6.7/10 from 30701 users

◎IMDb链接 http://www.imdb.com/title/tt0093777

◎豆瓣评分 6.5/10 from 728 users

◎豆瓣链接 https://movie.douban.com/subject/1294184/

◎BT之家整理 http://www.btbtt.us/

◎片  长 102 分钟

◎导  演 约翰·卡朋特 John Carpenter

◎编  剧 约翰·卡朋特 John Carpenter

◎主  演 唐纳德·普利森斯 Donald Pleasence

      维克托·王 Victor Wong

      丽萨·布伦特 Lisa Blount

      詹姆森·帕克 Jameson Parker

      Dennis Dun

      Anne Marie Howard

      Dirk Blocker

      Jessie Lawrence Ferguson

      Peter Jason

      Thom Bray

      Joanna Merlin





◎简  介  


  在洛杉矶一间废置的教堂里,一个牧师召集了一班学生与科学家,研究他们找到一个盛有绿色液体的玻璃管。这枝玻璃管可以将魔鬼之子释放,最终可以将魔鬼带到人间,世界末日便会来临。


Video
ID : 1
Format : AVC
Format/Info : Advanced Video Codec
Format profile : High@L5.1
Format settings : CABAC / 5 Ref Frames
Format settings, CABAC : Yes
Format settings, RefFrames : 5 frames
Codec ID : V_MPEG4/ISO/AVC
Duration : 1 h 41 min
Bit rate : 59.8 Mb/s
Width : 3 840 pixels
Height : 1 634 pixels
Display aspect ratio : 2.35:1
Frame rate mode : Constant
Frame rate : 24.000 FPS
Color space : YUV
Chroma subsampling : 4:2:0
Bit depth : 8 bits
Scan type : Progressive
Bits/(Pixel*Frame) : 0.397
Stream size : 42.5 GiB (93%)
Title : Prince.of.Darkness.1987.2160p.BluRay.x264.8bit.SDR.DTS-HD.MA.5.1-SWTYBLZ
Writing library : x264 core 157 r2935 545de2f
Encoding settings : cabac=1 / ref=5 / deblock=1:-1:-1 / analyse=0x3:0x113 / me=umh / subme=10 / psy=1 / psy_rd=1.00:0.15 / mixed_ref=1 / me_range=48 / chroma_me=1 / trellis=2 / 8x8dct=1 / cqm=0 / deadzone=21,11 / fast_pskip=1 / chroma_qp_offset=-3 / threads=48 / lookahead_threads=4 / sliced_threads=0 / nr=0 / decimate=0 / interlaced=0 / bluray_compat=0 / constrained_intra=0 / bframes=3 / b_pyramid=2 / b_adapt=2 / b_bias=0 / direct=3 / weightb=1 / open_gop=0 / weightp=2 / keyint=250 / keyint_min=23 / scenecut=40 / intra_refresh=0 / rc_lookahead=50 / rc=crf / mbtree=1 / crf=22.0 / qcomp=0.60 / qpmin=0 / qpmax=69 / qpstep=4 / ip_ratio=1.40 / aq=1:1.00
Language : English
Default : Yes
Forced : No

Audio #1
ID : 2
Format : DTS XLL
Format/Info : Digital Theater Systems
Commercial name : DTS-HD Master Audio
Codec ID : A_DTS
Duration : 1 h 41 min
Bit rate mode : Variable
Bit rate : 3 573 kb/s
Channel(s) : 6 channels
Channel layout : C L R Ls Rs LFE
Sampling rate : 48.0 kHz
Frame rate : 93.750 FPS (512 SPF)
Bit depth : 24 bits
Compression mode : Lossless
Stream size : 2.54 GiB (6%)
Title : Prince.of.Darkness.1987.2160p.BluRay.x264.8bit.SDR.DTS-HD.MA.5.1-SWTYBLZ
Language : English
Default : Yes
Forced : No

Audio #2
ID : 3
Format : AC-3
Format/Info : Audio Coding 3
Commercial name : Dolby Digital
Codec ID : A_AC3
Duration : 1 h 41 min
Bit rate mode : Constant
Bit rate : 640 kb/s
Channel(s) : 6 channels
Channel layout : L R C LFE Ls Rs
Sampling rate : 48.0 kHz
Frame rate : 31.250 FPS (1536 SPF)
Bit depth : 16 bits
Compression mode : Lossy
Stream size : 466 MiB (1%)
Title : Prince.of.Darkness.1987.2160p.BluRay.x264.8bit.SDR.DTS-HD.MA.5.1-SWTYBLZ
Language : English
Service kind : Complete Main
Default : No
Forced : No

Text #1
ID : 4
Format : UTF-8
Codec ID : S_TEXT/UTF8
Codec ID/Info : UTF-8 Plain Text
Duration : 1 h 35 min
Bit rate : 38 b/s
Count of elements : 794
Stream size : 27.1 KiB (0%)
Title : English-SRT
Language : English
Default : Yes
Forced : No

Text #2
ID : 5
Format : UTF-8
Codec ID : S_TEXT/UTF8
Codec ID/Info : UTF-8 Plain Text
Duration : 1 h 37 min
Bit rate : 40 b/s
Count of elements : 897
Stream size : 29.2 KiB (0%)
Title : English-SDH-SRT
Language : English
Default : No
Forced : No

Text #3
ID : 6
Format : PGS
Muxing mode : zlib
Codec ID : S_HDMV/PGS
Codec ID/Info : Picture based subtitle format used on BDs/HD-DVDs
Duration : 1 h 37 min
Bit rate : 25.2 kb/s
Count of elements : 1794
Stream size : 17.6 MiB (0%)
Title : English-PGS
Language : English
Default : No
Forced : No

Text #4
ID : 7
Format : PGS
Muxing mode : zlib
Codec ID : S_HDMV/PGS
Codec ID/Info : Picture based subtitle format used on BDs/HD-DVDs
Duration : 1 h 40 min
Bit rate : 14.3 kb/s
Count of elements : 1376
Stream size : 10.2 MiB (0%)
Title : French-PGS
Language : French
Default : No
Forced : No

Text #5
ID : 8
Format : PGS
Muxing mode : zlib
Codec ID : S_HDMV/PGS
Codec ID/Info : Picture based subtitle format used on BDs/HD-DVDs
Duration : 1 h 35 min
Bit rate : 18.9 kb/s
Count of elements : 1016
Stream size : 12.9 MiB (0%)
Title : German-PGS
Language : German
Default : No
Forced : No

Menu
00:00:00.000 : :Chapter 1
00:11:23.916 : :Chapter 2
00:20:05.041 : :Chapter 3
00:30:43.458 : :Chapter 4
00:42:11.291 : :Chapter 5
00:53:26.166 : :Chapter 6
01:06:35.791 : :Chapter 7
01:14:00.000 : :Chapter 8
01:23:36.708 : :Chapter 9
01:26:47.958 : :Chapter 10
01:35:09.166 : :Chapter 11
01:38:42.458 : :Chapter 12




1 个附件 售价 大小 下载 时间

Prince.of.Darkness.1987.2160p.BluRay.x264.8bit.SDR.DTS-HD.MA.5.1-SWTYBLZ[btbtt.me].torrent 0 金币 115.09K 210 次 4天前

#1楼
发帖时间:2018-11-09 22:12:04   |   回复数:3
liyouchai
超凡入圣№
谢谢楼主分享资源
4天前 #2楼
911degrees
隐世仙人♂
非常感谢,谢谢分享
4天前 #3楼
blue23
隐世仙人♂
感谢楼主分享
3天前 #4楼
游客组