aoloffline
版主

[2018] [欧美] [动作] [BD-Remux] [ВТ下载]Dead.Men.2018.1080p.BluRay.REMUX.AVC.DTS-HD.MA.5.1-FGT 30GB

-->

Dead.Men.2018.1080p.BluRay.REMUX.AVC.DTS-HD.MA.5.1-FGT


◎译  名 

◎片  名 Dead Men

◎年  代 2018

◎产  地 美国

◎类  别 动作 / 西部

◎语  言 英语

◎上映日期 2018-02-02(美国)

◎IMDb评分 4.7/10 from 192 users

◎IMDb链接 http://www.imdb.com/title/tt2226440

◎BT之家整理 http://www.btbtt.us/

◎片  长 180分钟

◎导  演 Royston Innes

◎编  剧 Royston Innes / Ric Maddox

◎主  演 Ric Maddox

      Aaron Marciniak

      理查德·雷恩 Richard Ryan



◎简  介  


  Set in the lawless world of the Old West, 'Dead Men' follows the path of a young man forced on a journey to avenge the death of this father, protect the Apache tribe he has grown to love and reclaim the land and gold that is rightfully theirs.


Video
ID : 1
Format : AVC
Format/Info : Advanced Video Codec
Format profile : High@L4.1
Format settings : CABAC / 2 Ref Frames
Format settings, CABAC : Yes
Format settings, ReFrames : 2 frames
Codec ID : V_MPEG4/ISO/AVC
Duration : 2 h 57 min
Bit rate mode : Variable
Bit rate : 22.6 Mb/s
Maximum bit rate : 30.2 Mb/s
Width : 1 920 pixels
Height : 1 080 pixels
Display aspect ratio : 16:9
Frame rate mode : Constant
Frame rate : 23.976 (24000/1001) FPS
Color space : YUV
Chroma subsampling : 4:2:0
Bit depth : 8 bits
Scan type : Progressive
Bits/(Pixel*Frame) : 0.455
Stream size : 28.0 GiB (91%)
Title : Dead.Men.2018.1080p.BluRay.REMUX.AVC.DTS-HD.MA.5.1-FGT
Language : English
Default : No
Forced : No

Audio #1
ID : 2
Format : DTS XLL
Format/Info : Digital Theater Systems
Commercial name : DTS-HD Master Audio
Codec ID : A_DTS
Duration : 2 h 57 min
Bit rate mode : Variable
Bit rate : 1 439 kb/s
Channel(s) : 6 channels
Channel layout : C L R Ls Rs LFE
Sampling rate : 48.0 kHz
Frame rate : 93.750 FPS (512 SPF)
Bit depth : 16 bits
Compression mode : Lossless
Stream size : 1.78 GiB (6%)
Title : Dead.Men.2018.1080p.BluRay.REMUX.AVC.DTS-HD.MA.5.1-FGT
Language : English
Default : Yes
Forced : No

Audio #2
ID : 3
Format : DTS
Format/Info : Digital Theater Systems
Codec ID : A_DTS
Duration : 2 h 57 min
Bit rate mode : Constant
Bit rate : 768 kb/s
Channel(s) : 6 channels
Channel layout : C L R Ls Rs LFE
Sampling rate : 48.0 kHz
Frame rate : 93.750 FPS (512 SPF)
Bit depth : 16 bits
Compression mode : Lossy
Stream size : 975 MiB (3%)
Title : Dead.Men.2018.1080p.BluRay.REMUX.AVC.DTS-HD.MA.5.1-FGT
Language : English
Default : No
Forced : No

Menu
00:00:00.000 : en:Chapter 01
00:04:04.953 : en:Chapter 02
00:13:58.921 : en:Chapter 03
00:22:45.822 : en:Chapter 04
00:35:20.993 : en:Chapter 05
00:45:19.216 : en:Chapter 06
01:06:16.681 : en:Chapter 07
01:30:54.866 : en:Chapter 08
01:53:18.458 : en:Chapter 09
02:13:39.094 : en:Chapter 10
02:37:55.841 : en:Chapter 11
02:55:42.823 : en:Chapter 12



1 个附件 售价 大小 下载 时间

Dead.Men.2018.1080p.BluRay.REMUX.AVC.DTS-HD.MA.5.1-FGT[btbtt.me].torrent 0 金币 77.44K 266 次 4天前

#1楼
发帖时间:2018-11-09 22:24:12   |   回复数:4
liyouchai
超凡入圣№
谢谢楼主分享资源
4天前 #2楼
linyihuangwei
武林盟主
谢谢分享
4天前 #3楼
911degrees
隐世仙人♂
非常感谢,谢谢分享
4天前 #4楼
blue23
隐世仙人♂
感谢楼主分享
3天前 #5楼
游客组