aoloffline
版主

[2018] [欧美] [剧情] [WEB-4K] [ВТ下载]李尔王 King.Lear.2018.2160p.AMZN.WEBRip.DDP5.1.x264-TrollUHD 19.5GB

-->

King.Lear.2018.2160p.AMZN.WEBRip.DDP5.1.x264-TrollUHD


◎译  名 李尔王

◎片  名 King Lear

◎年  代 2018

◎产  地 英国

◎类  别 剧情

◎语  言 英语

◎上映日期 2018-05-28(英国)

◎IMDb评分 6.2/10 from 1138 users

◎IMDb链接 http://www.imdb.com/title/tt7473890

◎豆瓣评分 7.2/10 from 891 users

◎豆瓣链接 https://movie.douban.com/subject/26743470/

◎BT之家整理 http://www.btbtt.us/

◎片  长 115分钟

◎导  演 理查德·艾尔 Richard Eyre

◎编  剧 理查德·艾尔 Richard Eyre

◎主  演 安东尼·霍普金斯 Anthony Hopkins

      艾玛·汤普森 Emma Thompson

      艾米丽·沃森 Emily Watson

      弗洛伦斯·皮尤 Florence Pugh

      吉姆·布劳德本特 Jim Broadbent

      吉姆·卡特 Jim Carter

      托比亚斯·门基斯 Tobias Menzies

      约翰·麦克米兰 John MacMillan

      安东尼·凯尔夫 Anthony Calf

      Simon Manyonda

      Chukwudi Iwuji

      卡尔·约翰逊 Karl Johnson

      Samuel Valentine

      安德鲁·斯科特 Andrew Scott

      克里斯托弗·埃克莱斯顿 Christopher Eccleston

      阿琳泽·科纳 Arinzé Kene

      约翰·斯坦丁 John Standing

      拉裴尔·德普雷 Raphael Desprez

      Shawn Dixon

      Tuncay Gunes

      所罗门·塔伊沃·贾斯提费尔德 Solomon Taiwo Justified

      伯纳多·桑托斯 Bernardo Santos





◎简  介  


  莎士比亚名著改编,故事设定在现代!安东尼·霍普金斯出演李尔王,艾玛·汤普森、艾米丽·沃森、弗洛伦斯·皮尤分别饰演李尔王的三个女儿!吉姆·布劳德本特、安德鲁·斯科特、吉姆·卡特等戏骨参演!《空王冠·亨利四世》《丑闻笔记》理查德·艾尔执导。

80岁高龄的李尔王决定将广袤的国土分给自己的三个女儿,李尔王让三个女儿说出各自心中对父王的爱戴,大女儿Goneril(艾玛·汤普森)和二女儿Regan(艾米丽·沃森)极尽花言巧语之所能,得到了李尔王的赞赏,小女儿Cordelia(弗洛伦斯·皮尤)质朴而诚实,反而遭到了无情的驱逐…得到了父亲大片疆土的大女儿和二女儿则将李尔王赶出了家门。直到流落荒野无处可去,李尔王才明白自己犯了天大的错误…


Video
ID : 1
Format : AVC
Format/Info : Advanced Video Codec
Format profile : High@L5.1
Format settings : CABAC / 5 Ref Frames
Format settings, CABAC : Yes
Format settings, ReFrames : 5 frames
Codec ID : V_MPEG4/ISO/AVC
Duration : 1 h 55 min
Bit rate : 23.2 Mb/s
Width : 3 840 pixels
Height : 1 608 pixels
Display aspect ratio : 2.40:1
Frame rate mode : Constant
Frame rate : 25.000 FPS
Color space : YUV
Chroma subsampling : 4:2:0
Bit depth : 8 bits
Scan type : Progressive
Bits/(Pixel*Frame) : 0.150
Stream size : 18.7 GiB (95%)
Writing library : x264 core 155 r2901 7d0ff22
Encoding settings : cabac=1 / ref=5 / deblock=1:-3:-3 / analyse=0x3:0x133 / me=umh / subme=10 / psy=1 / psy_rd=1.00:0.00 / mixed_ref=1 / me_range=48 / chroma_me=1 / trellis=2 / 8x8dct=1 / cqm=0 / deadzone=21,11 / fast_pskip=1 / chroma_qp_offset=-2 / threads=42 / lookahead_threads=7 / sliced_threads=0 / nr=0 / decimate=0 / interlaced=0 / bluray_compat=0 / constrained_intra=0 / bframes=8 / b_pyramid=2 / b_adapt=2 / b_bias=0 / direct=3 / weightb=1 / open_gop=0 / weightp=2 / keyint=250 / keyint_min=25 / scenecut=40 / intra_refresh=0 / rc=crf / mbtree=0 / crf=18.0 / qcomp=0.80 / qpmin=0 / qpmax=69 / qpstep=4 / ip_ratio=1.40 / pb_ratio=1.30 / aq=3:0.80
Language : English
Default : Yes
Forced : No

Audio
ID : 2
Format : E-AC-3
Format/Info : Enhanced AC-3
Commercial name : Dolby Digital Plus
Codec ID : A_EAC3
Duration : 1 h 55 min
Bit rate mode : Constant
Bit rate : 640 kb/s
Channel(s) : 6 channels
Channel layout : L R C LFE Ls Rs
Sampling rate : 48.0 kHz
Frame rate : 31.250 FPS (1536 SPF)
Compression mode : Lossy
Stream size : 527 MiB (3%)
Language : English
Service kind : Complete Main
Default : Yes
Forced : No

Text
ID : 3
Format : UTF-8
Codec ID : S_TEXT/UTF8
Codec ID/Info : UTF-8 Plain Text
Title : SDH
Language : English
Default : No
Forced : No

Menu
00:00:00.000 : en:Studio Logo
00:00:05.000 : en:Opening Credits
00:01:22.000 : en:King Lear decides to divide his kingdom among his three daughters
00:06:05.000 : en:Cordelia speaks the truth and others face dire consequences
00:13:05.000 : en:Edmund hatches a plot
00:19:22.000 : en:The Earl of Kent is a slave to his loyalty to the king
00:24:53.000 : en:Goneril is concerned for her father\'s health
00:33:13.000 : en:Edmund\'s plot unfolds | Regan avoids her father
00:41:15.000 : en:Regan and Goneril tell Lear he is unwell and must go
00:47:40.000 : en:Lear suspects an evil plot between his daughters
00:54:45.000 : en:Gloucester hatches a plot | Lear wanders into a refugee camp
00:59:27.000 : en:Gloucester suggests the king flee to Dover
01:06:32.000 : en:Regan and Cornwall accuse Gloucester of treason
01:13:12.000 : en:Edgar leads Gloucester to the cliffs of Dover
01:18:13.000 : en:Lear is reunited with Gloucester, Edgar, and his men
01:23:04.000 : en:Goneril and Regan must decide if they are going to war
01:27:33.000 : en:Cordelia forgives her father for disowning her
01:32:58.000 : en:The war is quickly won | Albany accuses Edmund of treason
01:40:49.000 : en:Edmund fights to the death for his honor
01:43:55.000 : en:Everyone\'s evil plots are revealed
01:46:08.000 : en:The kingdom remains under a cloud of sorrow and regret
01:54:14.000 : en:End Credits



1 个附件 售价 大小 下载 时间

King.Lear.2018.2160p.AMZN.WEBRip.DDP5.1.x264-TrollUHD[btbtt.me].torrent 0 金币 98.44K 651 次 6天前

#1楼
发帖时间:2018-11-09 22:26:22   |   回复数:4
liyouchai
超凡入圣№
谢谢楼主分享资源
6天前 #2楼
911degrees
隐世仙人♂
非常感谢,谢谢分享
6天前 #3楼
tanchoohoon
武林盟主
感谢楼主的无私分享
6天前 #4楼
blue23
隐世仙人♂
感谢楼主分享
5天前 #5楼
游客组