aoloffline
版主

[2011] [欧美] [剧情] [WEB-1080P] [ВТ下载]Passionflower.2011.1080p.AMZN.WEBRip.DDP2.0.x264-SiGMA 3.17GB

-->

Passionflower.2011.1080p.AMZN.WEBRip.DDP2.0.x264-SiGMA


◎译  名 

◎片  名 Passionflower

◎年  代 2012

◎产  地 加拿大 Canada

◎类  别 剧情

◎语  言 英语

◎IMDb评分 6.8/10 from 47 users

◎IMDb链接 http://www.imdb.com/title/tt2007443

◎BT之家整理 http://www.btbtt.us/

◎片  长 84分钟

◎导  演 Shelagh Carter

◎编  剧 Shelagh Carter

◎主  演 Kassidy Love Brown

      达西·菲尔 Darcy Fehr

      Kristen Harris



◎简  介  


  On the brink of puberty in 1962 suburban Winnipeg, Sarah Matthews is increasingly challenged and confused by her mother's instability and sexual power. While her father refuses to acknowledge that the family is fracturing under the stress of his wife's mental illness, Sarah uses her creativity, inner strength, and a new friend to discover her own identity. With courage, Sarah bears witness and demands truth from the adults around her, demonstrating love's capacity to endure.


Video
ID : 1
Format : AVC
Format/Info : Advanced Video Codec
Format profile : [email protected]
Format settings : CABAC / 4 Ref Frames
Format settings, CABAC : Yes
Format settings, ReFrames : 4 frames
Codec ID : V_MPEG4/ISO/AVC
Duration : 1 h 24 min
Bit rate mode : Variable
Bit rate : 5 174 kb/s
Maximum bit rate : 15.0 Mb/s
Width : 1 920 pixels
Height : 1 080 pixels
Display aspect ratio : 16:9
Frame rate mode : Constant
Frame rate : 23.976 (24000/1001) FPS
Color space : YUV
Chroma subsampling : 4:2:0
Bit depth : 8 bits
Scan type : Progressive
Bits/(Pixel*Frame) : 0.104
Stream size : 3.04 GiB (96%)
Writing library : x264 core 148 r2623 d5b2374
Encoding settings : cabac=1 / ref=4 / deblock=1:-1:-1 / analyse=0x3:0x133 / me=umh / subme=9 / psy=1 / psy_rd=1.00:0.15 / mixed_ref=1 / me_range=24 / chroma_me=1 / trellis=2 / 8x8dct=1 / cqm=0 / deadzone=21,11 / fast_pskip=1 / chroma_qp_offset=-3 / threads=34 / lookahead_threads=5 / sliced_threads=0 / nr=150 / decimate=1 / interlaced=0 / bluray_compat=0 / constrained_intra=0 / bframes=8 / b_pyramid=2 / b_adapt=2 / b_bias=0 / direct=3 / weightb=1 / open_gop=0 / weightp=2 / keyint=120 / keyint_min=61 / scenecut=0 / intra_refresh=0 / rc_lookahead=120 / rc=crf / mbtree=1 / crf=18.0 / qcomp=0.60 / qpmin=0 / qpmax=69 / qpstep=4 / vbv_maxrate=15000 / vbv_bufsize=31250 / crf_max=0.0 / nal_hrd=vbr / filler=0 / ip_ratio=1.40 / aq=3:1.00
Default : Yes
Forced : No
Color range : Limited
Color primaries : BT.709
Transfer characteristics : BT.709
Matrix coefficients : BT.709

Audio
ID : 2
Format : E-AC-3
Format/Info : Enhanced AC-3
Commercial name : Dolby Digital Plus
Codec ID : A_EAC3
Duration : 1 h 24 min
Bit rate mode : Constant
Bit rate : 224 kb/s
Channel(s) : 2 channels
Channel layout : L R
Sampling rate : 48.0 kHz
Frame rate : 31.250 FPS (1536 SPF)
Compression mode : Lossy
Stream size : 135 MiB (4%)
Language : English
Service kind : Complete Main
Default : Yes
Forced : No

Text
ID : 3
Format : UTF-8
Codec ID : S_TEXT/UTF8
Codec ID/Info : UTF-8 Plain Text
Duration : 1 h 21 min
Bit rate : 33 b/s
Count of elements : 824
Stream size : 19.9 KiB (0%)
Title : English (SDH)
Language : English
Default : No
Forced : No



1 个附件 售价 大小 下载 时间

Passionflower.2011.1080p.AMZN.WEBRip.DDP2.0.x264-SiGMA[btbtt.me].torrent 0 金币 63.97K 532 次 9月前

#1楼
发帖时间:2018-11-10 11:33:36   |   回复数:3
911degrees
隐世仙人♂
非常感谢,谢谢分享
9月前 #2楼
liyouchai
隐世仙人♂
谢谢楼主分享资源
9月前 #3楼
blue23
隐世仙人♂
感谢楼主分享
9月前 #4楼
游客组