_KOOK
武林高手

[2011] [欧美] [爱情] [BD-1080P] [BT下载]欲望酒店.Hotel Desire.2011.DE.BluRay.1920x816p.x264.DTS-KOOK.[中英双字] 3.51GB

-->

欲望酒店.Hotel Desire.2011.DE.BluRay.1920x816p.x264.DTS-KOOK.[中英双字] 3.51GB

无广告,无水印,欢迎转载

独家中英双字幕

不定时做种,保证出种,请耐心等待.


※※※※※※※ 影片信息 ※※※※※※※


◎片   名 Hotel Desire

◎译   名 欲望酒店 / 欲望旅馆

◎年   代 2011

◎国   家 德国

◎类   别 短片 / 情色

◎语   言 德语

◎上映日 期 2011-12-07(德国)

◎字   幕 中英双字/繁英双字/简体字幕/繁体字幕/英文字幕

◎IMDB 评分  5.8/10 from 2002 users

◎豆瓣 评分  6.9/10 from 4323 users

◎视频尺 寸  1920x1080p

◎片   长 00.39.15

◎导   演 谢尔盖·摩亚

◎编   剧  谢尔盖·摩亚

◎主   演 Saralisa Volm / 克雷蒙斯·施伊克 / Jan Gregor Kremp / 赫伯特·克瑙普




 

◎简  介



  这是七月以来最热的一天,单身母亲托尼(Saralisa Volm 饰)匆忙洗漱后,便送七岁的儿子去赶车,儿子将到法国的父亲那里度过夏令营。当焦头烂额的托尼赶到她所工作的酒店,虽然已经是干了五年的老员工了,但前台小生还是拿迟到为难她。生活和工作的小磕绊并非托尼的全部烦恼,真正令她愁眉不展的是,自从与丈夫分开后,她已经七年没有过性生活了,男人似乎都选择对一个带着小孩的女人视而不见,尽管托尼风韵犹存。别无他法,托尼只好继续如往日般打扫客房,当打扫到最后一间客房时,这里似乎住着一位画家,就当托尼以为刚淋浴出来的他会对贸然闯入的自己发怒时,她却发现眼前这个性感有趣的男人是位盲人……






※※※※※※※ 参数信息 ※※※※※※※



General

Unique ID                      : 245300120957989067931517060672955105014 (0xB88B15B784112DD5905067A0945C3EF6)


Format                         : Matroska

Format version                 : Version 4 / Version 2

File size                      : 3.52 GiB

Duration                       : 39 min

Overall bit rate               : 12.8 Mb/s

Movie name                     : KOOK

Encoded date                   : UTC 2018-11-30 00:02:03

Writing application            : mkvmerge v9.4.2 ('So High') 64bit

Writing library                : libebml v1.3.4 + libmatroska v1.4.5

Attachments                    : fzgljw.ttf / STKAITI.TTF / 正式海报.jpg


Video

ID                             : 1

Format                         : AVC

Format/Info                    : Advanced Video Codec

Format profile                 : [email protected]

Format settings, CABAC         : Yes

Format settings, ReFrames      : 5 frames

Codec ID                       : V_MPEG4/ISO/AVC

Duration                       : 39 min

Bit rate                       : 11.3 Mb/s

Width                          : 1 920 pixels

Height                         : 816 pixels

Display aspect ratio           : 2.35:1

Frame rate mode                : Constant

Frame rate                     : 23.976 (24000/1001) FPS

Color space                    : YUV

Chroma subsampling             : 4:2:0

Bit depth                      : 8 bits

Scan type                      : Progressive

Bits/(Pixel*Frame)             : 0.299

Stream size                    : 3.08 GiB (88%)

Title                          : Hotel.Desire.2011.BluRay.1080p.x264.DTS-MySilu

Writing library                : x264 core 125 r2200+666+31 2d8fe44 tMod+MixAQ [[email protected]:2:0 X86_64]

Encoding settings              : cabac=1 / ref=5 / deblock=1:-3:-3 / analyse=0x3:0x113 / me=umh / subme=11 / psy=1 / fade_compensate=0.20 / psy_rd=1.10:0.10 / mixed_ref=1 / me_range=48 / chroma_me=1 / trellis=2 / 8x8dct=1 / cqm=0 / deadzone=21,11 / fast_pskip=0 / chroma_qp_offset=-4 / threads=12 / lookahead_threads=2 / sliced_threads=0 / nr=0 / decimate=1 / interlaced=0 / bluray_compat=0 / constrained_intra=0 / fgo=3 / bframes=8 / b_pyramid=2 / b_adapt=2 / b_bias=0 / direct=3 / weightb=1 / open_gop=0 / weightp=2 / keyint=360 / keyint_min=1 / scenecut=40 / intra_refresh=0 / rc_lookahead=240 / rc=2pass / mbtree=1 / bitrate=11250 / ratetol=1.0 / qcomp=0.60 / qpmin=0 / qpmax=69 / qpstep=4 / cplxblur=20.0 / qblur=0.5 / vbv_maxrate=40000 / vbv_bufsize=30000 / nal_hrd=none / ip_ratio=1.40 / aq=4 / aq-strength=0.90 / aq-sensitivity=10.00 / aq-ifactor=1.00 / aq-pfactor=1.00 / aq-bfactor=1.00 / aq2=0

Language                       : English

Default                        : Yes

Forced                         : No


Audio

ID                             : 2

Format                         : DTS

Format/Info                    : Digital Theater Systems

Mode                           : 16

Format settings, Endianness    : Big

Codec ID                       : A_DTS

Duration                       : 39 min

Bit rate mode                  : Constant

Bit rate                       : 1 509 kb/s

Channel(s)                     : 6 channels

Channel positions              : Front: L C R, Side: L R, LFE

Sampling rate                  : 48.0 kHz

Frame rate                     : 93.750 FPS (512 spf)

Bit depth                      : 24 bits

Compression mode               : Lossy

Stream size                    : 424 MiB (12%)

Title                          : Ger DTS5.1 1.5M

Language                       : German

Default                        : Yes

Forced                         : No


Text #1

ID                             : 3

Format                         : ASS

Codec ID                       : S_TEXT/ASS

Codec ID/Info                  : Advanced Sub Station Alpha

Duration                       : 36 min

Bit rate                       : 137 b/s

Count of elements              : 218

Compression mode               : Lossless

Stream size                    : 37.3 KiB (0%)

Title                          : 简英字幕

Language                       : Chinese

Default                        : Yes

Forced                         : No


Text #2

ID                             : 4

Format                         : ASS

Codec ID                       : S_TEXT/ASS

Codec ID/Info                  : Advanced Sub Station Alpha

Duration                       : 36 min

Bit rate                       : 137 b/s

Count of elements              : 218

Compression mode               : Lossless

Stream size                    : 37.3 KiB (0%)

Title                          : 繁英字幕

Language                       : Chinese

Default                        : No

Forced                         : No


Text #3

ID                             : 5

Format                         : ASS

Codec ID                       : S_TEXT/ASS

Codec ID/Info                  : Advanced Sub Station Alpha

Duration                       : 36 min

Bit rate                       : 69 b/s

Count of elements              : 218

Compression mode               : Lossless

Stream size                    : 18.7 KiB (0%)

Title                          : 简体字幕

Language                       : Chinese

Default                        : No

Forced                         : No


Text #4

ID                             : 6

Format                         : ASS

Codec ID                       : S_TEXT/ASS

Codec ID/Info                  : Advanced Sub Station Alpha

Duration                       : 36 min

Bit rate                       : 69 b/s

Count of elements              : 218

Compression mode               : Lossless

Stream size                    : 18.7 KiB (0%)

Title                          : 繁体字幕

Language                       : Chinese

Default                        : No

Forced                         : No


Text #5

ID                             : 7

Format                         : ASS

Codec ID                       : S_TEXT/ASS

Codec ID/Info                  : Advanced Sub Station Alpha

Duration                       : 36 min

Bit rate                       : 95 b/s

Count of elements              : 216

Compression mode               : Lossless

Stream size                    : 26.0 KiB (0%)

Title                          : 英文字幕

Language                       : English

Default                        : No

Forced                         : No



1 个附件 售价 大小 下载 时间

欲望酒店.Hotel Desire.2011.DE.BluRay.1920x816p.x264.DTS-KOOK.[中英双字].torrent 0 金币 146.04K 7802 次 8月前

#1楼
发帖时间:2018-12-01 11:27:00   |   回复数:4
911degrees
隐世仙人♂
非常感谢,谢谢分享
8月前 #2楼
PCHUN
武林高手
Thanks for sharing
8月前 #3楼
blue23
隐世仙人♂
感谢楼主分享
8月前 #4楼
liyouchai
隐世仙人♂
谢谢楼主分享资源
8月前 #5楼
游客组