aoloffline
版主

[2011] [欧美] [剧情] [BD-Remux] [BT下载]我愿化作河流 2011.1080p.BluRay.REMUX.AVC.DTS-HD.MA.5.1-FGT 14.7GB

-->

The.River.Used.to.Be.a.Man.2011.1080p.BluRay.REMUX.AVC.DTS-HD.MA.5.1-FGT

◎译  名 我愿化作河流 / The River Used to Be a Man / 型男漂流日志(台)

◎片  名 Der Fluss war einst ein Mensch

◎年  代 2011

◎产  地 德国

◎类  别 剧情

◎语  言 英语

◎上映日期 2012-09-27(德国)

◎IMDb评分 6.1/10 from 208 users

◎IMDb链接 http://www.imdb.com/title/tt1956669

◎豆瓣评分 6.1/10 from 28 users

◎豆瓣链接 https://movie.douban.com/subject/6799515/

◎BT之家整理 http://www.51btbtt.com/

◎片  长 83分钟

◎导  演 Jan Zabeil

◎编  剧 Jan Zabeil / Alexander Fehling

◎主  演 亚历山大·斐林 Alexander Fehling




◎简  介  


  德国型男演员到非洲旅行,雇了黑人老头为独木舟掌舵,悠悠哉哉地在水草漫生的河床中静卧。孰料一觉醒来,老船夫竟断了气,迷路的他怎么也划不出去,还把死尸给弄丢了。一场浪漫的漂流游记,剎那间变成部落诅咒与鬼魅良心的纠缠。导演以一个寓言,嘲讽着城市人对非洲大陆的某种幻想风情;《少年歌德的烦恼》德国帅哥亚历山大•斐林近半场的独角戏,演技精湛。


◎获奖情况  


  第14届台北电影节(2012)

  国际青年导演竞赛 最佳影片(提名) 杨·扎拜尔


Video
ID : 1
Format : AVC
Format/Info : Advanced Video Codec
Format profile : [email protected]
Format settings : CABAC / 3 Ref Frames
Format settings, CABAC : Yes
Format settings, ReFrames : 3 frames
Format settings, GOP : M=4, N=24
Codec ID : V_MPEG4/ISO/AVC
Duration : 1 h 20 min
Bit rate mode : Variable
Bit rate : 22.0 Mb/s
Maximum bit rate : 29.0 Mb/s
Width : 1 920 pixels
Height : 1 080 pixels
Display aspect ratio : 16:9
Frame rate mode : Constant
Frame rate : 25.000 FPS
Color space : YUV
Chroma subsampling : 4:2:0
Bit depth : 8 bits
Scan type : Progressive
Bits/(Pixel*Frame) : 0.424
Stream size : 12.3 GiB (83%)
Title : The.River.Used.to.Be.a.Man.2011.1080p.BluRay.REMUX.AVC.DTS-HD.MA.5.1-FGT
Writing library : x264 core 129 r2245 bc13772
Encoding settings : cabac=1 / ref=4 / deblock=1:-1:-1 / analyse=0x3:0x133 / me=umh / subme=10 / psy=1 / psy_rd=1.00:0.15 / mixed_ref=1 / me_range=24 / chroma_me=1 / trellis=2 / 8x8dct=1 / cqm=0 / deadzone=21,11 / fast_pskip=1 / chroma_qp_offset=-3 / threads=6 / lookahead_threads=1 / sliced_threads=0 / slices=4 / nr=0 / decimate=1 / interlaced=fake / bluray_compat=1 / constrained_intra=0 / bframes=3 / b_pyramid=1 / b_adapt=2 / b_bias=0 / direct=3 / weightb=1 / open_gop=0 / weightp=1 / keyint=24 / keyint_min=1 / scenecut=40 / intra_refresh=0 / rc_lookahead=25 / rc=2pass / mbtree=1 / bitrate=22000 / ratetol=1.0 / qcomp=0.60 / qpmin=0 / qpmax=69 / qpstep=4 / cplxblur=20.0 / qblur=0.5 / vbv_maxrate=29000 / vbv_bufsize=30000 / nal_hrd=vbr / ip_ratio=1.40 / aq=1:1.00
Language : English
Default : No
Forced : No
Color range : Limited
Color primaries : BT.709
Transfer characteristics : BT.709
Matrix coefficients : BT.709

Audio #1
ID : 2
Format : DTS XLL
Format/Info : Digital Theater Systems
Commercial name : DTS-HD Master Audio
Codec ID : A_DTS
Duration : 1 h 20 min
Bit rate mode : Variable
Bit rate : 3 321 kb/s
Channel(s) : 6 channels
Channel layout : C L R Ls Rs LFE
Sampling rate : 48.0 kHz
Frame rate : 93.750 FPS (512 SPF)
Bit depth : 24 bits
Compression mode : Lossless
Stream size : 1.87 GiB (13%)
Title : The.River.Used.to.Be.a.Man.2011.1080p.BluRay.REMUX.AVC.DTS-HD.MA.5.1-FGT
Language : English
Default : Yes
Forced : No

Audio #2
ID : 3
Format : DTS
Format/Info : Digital Theater Systems
Codec ID : A_DTS
Duration : 1 h 20 min
Bit rate mode : Constant
Bit rate : 768 kb/s
Channel(s) : 6 channels
Channel layout : C L R Ls Rs LFE
Sampling rate : 48.0 kHz
Frame rate : 93.750 FPS (512 SPF)
Bit depth : 24 bits
Compression mode : Lossy
Stream size : 442 MiB (3%)
Title : The.River.Used.to.Be.a.Man.2011.1080p.BluRay.REMUX.AVC.DTS-HD.MA.5.1-FGT
Language : English
Default : No
Forced : No

Audio #3
ID : 4
Format : AC-3
Format/Info : Audio Coding 3
Commercial name : Dolby Digital
Codec ID : A_AC3
Duration : 1 h 20 min
Bit rate mode : Constant
Bit rate : 256 kb/s
Channel(s) : 2 channels
Channel layout : L R
Sampling rate : 48.0 kHz
Frame rate : 31.250 FPS (1536 SPF)
Bit depth : 16 bits
Compression mode : Lossy
Stream size : 147 MiB (1%)
Title : The.River.Used.to.Be.a.Man.2011.1080p.BluRay.REMUX.AVC.DTS-HD.MA.5.1-FGT
Language : English
Service kind : Complete Main
Default : No
Forced : No

Text #1
ID : 5
Format : PGS
Muxing mode : zlib
Codec ID : S_HDMV/PGS
Codec ID/Info : Picture based subtitle format used on BDs/HD-DVDs
Duration : 1 h 6 min
Bit rate : 2 312 b/s
Count of elements : 181
Stream size : 1.10 MiB (0%)
Title : English-PGS
Language : English
Default : Yes
Forced : No

Text #2
ID : 6
Format : PGS
Muxing mode : zlib
Codec ID : S_HDMV/PGS
Codec ID/Info : Picture based subtitle format used on BDs/HD-DVDs
Duration : 1 h 6 min
Bit rate : 2 166 b/s
Count of elements : 181
Stream size : 1.03 MiB (0%)
Title : Spanish-PGS
Language : Spanish
Default : No
Forced : No

Menu
00:00:00.000 : en:Chapter 01
00:05:13.960 : en:Chapter 02
00:13:01.480 : en:Chapter 03
00:18:15.400 : en:Chapter 04
00:23:07.680 : en:Chapter 05
00:30:24.800 : en:Chapter 06
00:41:18.160 : en:Chapter 07
00:49:02.880 : en:Chapter 08
00:55:08.760 : en:Chapter 09
01:00:34.360 : en:Chapter 10
01:04:42.840 : en:Chapter 11
01:15:04.280 : en:Chapter 12



1 个附件 售价 大小 下载 时间

The.River.Used.to.Be.a.Man.2011.1080p.BluRay.REMUX.AVC.DTS-HD.MA.5.1-FGT[btbtt.me].torrent 0 金币 74.47K 434 次 7月前

#1楼
发帖时间:2019-01-28 12:47:49   |   回复数:2
liyouchai
隐世仙人♂
谢谢楼主分享资源
7月前 #2楼
911degrees
隐世仙人♂
非常感谢,谢谢分享
6月前 #3楼
游客组