aoloffline
版主

[2011] [日本] [剧情] [BD-1080P] [BT下载]奇迹 I.Wish.2011.1080p.BluRay.x264-ROVERS 8.75GB

-->

I.Wish.2011.1080p.BluRay.x264-ROVERS


◎译  名 奇迹 / I Wish

◎片  名 奇跡

◎年  代 2011

◎产  地 日本

◎类  别 剧情 / 家庭

◎语  言 日语

◎上映日期 2011-06-11(日本)

◎IMDb评分 7.4/10 from 5066 users

◎IMDb链接 http://www.imdb.com/title/tt1650453

◎豆瓣评分 8.8/10 from 33442 users

◎豆瓣链接 https://movie.douban.com/subject/4832288/

◎BT之家整理 http://www.51btbtt.com/

◎片  长 128分钟

◎导  演 是枝裕和 Hirokazu Koreeda

◎编  剧 是枝裕和 Hirokazu Koreeda

◎主  演 前田航基  Koki Maeda

      前田旺志郎  Ohshirô Maeda

      大塚宁宁 Nene Otsuka

      小田切让 Jô Odagiri

      夏川结衣 Yui Natsukawa

      阿部宽 Hiroshi Abe

      长泽正美 Masami Nagasawa

      原田芳雄 Yoshio Harada

      树木希林 Kirin Kiki

      桥爪功 Isao Hashizume

      橋本環奈 Kanna Hashimoto

      林凌雅 Ryôga Hayashi

      中村友理 Yuri Nakamura

      内田伽罗 Kyara Uchida



◎标  签 日本 | 温情 | 家庭 | 成长 | 亲情 | 儿童 | 2011 | 剧情


◎简  介  


  一段破败的婚姻,让两个尚未成年的好兄弟天各一边。哥哥航一(前田航基 饰)随母亲大迫希美(大塚寧々 饰)回到位于鹿儿岛的外婆家,弟弟龙之介(前田旺志郎 饰)则和追寻音乐梦想的“废柴”父亲木南健次(小田切让 饰)在福冈居住。兄弟俩有了各自的朋友圈,父母也似乎渐渐安定下来。可 是,他们无论如何还是希望重新聚在一起。鹿儿岛开往福冈的新干线“燕”和福冈开往鹿儿岛的“樱”号途中会有一次短暂的交汇,传说这时许下心中愿望的话,奇迹就会降临。晴朗的一天,两兄弟各自带着朋友朝着心中的奇迹之地出发……

本片荣获第26届高崎电影节最佳新人男演员奖(前田兄弟)和最佳新人女演员奖(内田伽羅)。


◎获奖情况  


  第6届亚洲电影大奖(2012)

  最佳新演员(提名) 前田旺志郎


  第11届华盛顿影评人协会奖(2012)

  最佳外语片(提名)


  第36届香港国际电影节(2012)

  天主教文化奖 天主教文化奖(提名) 是枝裕和

  天主教文化奖 特别表扬 是枝裕和


Video
ID : 1
Format : AVC
Format/Info : Advanced Video Codec
Format profile : [email protected]
Format settings : CABAC / 4 Ref Frames
Format settings, CABAC : Yes
Format settings, ReFrames : 4 frames
Codec ID : V_MPEG4/ISO/AVC
Duration : 2 h 8 min
Bit rate : 8 242 kb/s
Width : 1 920 pixels
Height : 1 040 pixels
Display aspect ratio : 1.85:1
Frame rate mode : Constant
Frame rate : 23.976 (23976/1000) FPS
Color space : YUV
Chroma subsampling : 4:2:0
Bit depth : 8 bits
Scan type : Progressive
Bits/(Pixel*Frame) : 0.172
Stream size : 7.22 GiB (83%)
Writing library : x264 core 133 r2334 a3ac64b
Encoding settings : cabac=1 / ref=4 / deblock=1:0:0 / analyse=0x3:0x133 / me=umh / subme=7 / psy=1 / psy_rd=1.00:0.00 / mixed_ref=1 / me_range=16 / chroma_me=1 / trellis=1 / 8x8dct=1 / cqm=0 / deadzone=21,11 / fast_pskip=0 / chroma_qp_offset=-2 / threads=12 / lookahead_threads=2 / sliced_threads=0 / nr=0 / decimate=1 / interlaced=0 / bluray_compat=0 / constrained_intra=0 / bframes=3 / b_pyramid=2 / b_adapt=2 / b_bias=0 / direct=3 / weightb=1 / open_gop=0 / weightp=2 / keyint=250 / keyint_min=23 / scenecut=40 / intra_refresh=0 / rc_lookahead=50 / rc=2pass / mbtree=1 / bitrate=8242 / ratetol=1.0 / qcomp=0.60 / qpmin=0 / qpmax=69 / qpstep=4 / cplxblur=20.0 / qblur=0.5 / ip_ratio=1.40 / aq=1:1.00
Language : English
Default : Yes
Forced : No

Audio
ID : 2
Format : DTS
Format/Info : Digital Theater Systems
Codec ID : A_DTS
Duration : 2 h 8 min
Bit rate mode : Constant
Bit rate : 1 509 kb/s
Channel(s) : 6 channels
Channel layout : C L R Ls Rs LFE
Sampling rate : 48.0 kHz
Frame rate : 93.750 FPS (512 SPF)
Bit depth : 24 bits
Compression mode : Lossy
Stream size : 1.35 GiB (15%)
Language : Japanese
Default : Yes
Forced : No

Text
ID : 3
Format : UTF-8
Codec ID : S_TEXT/UTF8
Codec ID/Info : UTF-8 Plain Text
Language : English
Default : Yes
Forced : No

Menu
00:00:00.000 : en:00:00:00.000
00:11:48.333 : en:00:11:48.333
00:24:08.572 : en:00:24:08.572
00:37:38.298 : en:00:37:38.298
00:46:09.850 : en:00:46:09.850
00:58:21.415 : en:00:58:21.415
01:14:22.124 : en:01:14:22.124
01:22:51.967 : en:01:22:51.967
01:31:43.540 : en:01:31:43.540
01:40:59.428 : en:01:40:59.428
01:47:36.075 : en:01:47:36.075
02:04:20.453 : en:02:04:20.453



1 个附件 售价 大小 下载 时间

I.Wish.2011.1080p.BluRay.x264-ROVERS[btbtt.me].torrent 0 金币 44.20K 1820 次 6月前

#1楼
发帖时间:2019-01-29 11:40:56   |   回复数:2
liyouchai
隐世仙人♂
谢谢楼主分享资源
6月前 #2楼
911degrees
隐世仙人♂
非常感谢,谢谢分享
6月前 #3楼
游客组