aoloffline
版主

[2007] [香港] [犯罪] [BD-1080P] [BT下载]神探 Mad.Detective.2007.PROPER.1080p.BluRay.x264-aBD 7.95GB

-->

Mad.Detective.2007.PROPER.1080p.BluRay.x264-aBD


◎译  名 Mad Detective

◎片  名 神探

◎年  代 2007

◎产  地 香港

◎类  别 动作 / 惊悚 / 犯罪

◎语  言 粤语 / 英语

◎上映日期 2007-09-06(威尼斯电影节) / 2007-11-29(香港)

◎IMDb评分 7.2/10 from 6252 users

◎IMDb链接 http://www.imdb.com/title/tt0969269

◎豆瓣评分 8.4/10 from 130543 users

◎豆瓣链接 https://movie.douban.com/subject/2027938/

◎BT之家整理 http://www.51btbtt.com/

◎片  长 89 分钟

◎导  演 杜琪峰 Johnnie To / 韦家辉 Ka-Fai Wai

◎编  剧 韦家辉 Ka-Fai Wai / 欧健儿 Kin-Yee Au

◎主  演 刘青云 Sean Lau

      安志杰 Andy On

      林家栋 Ka Tung Lam

      林熙蕾 Kelly Lin

      李国麟 Kwok-Lun Lee

      李彩宁  Choi-ning Lee

      陈慧珊 Flora Chan

      林雪 Suet Lam

      张兆辉 Siu-Fai Cheung

      刘锦玲 Jay Lau

      郭少芸 Florence Kwok

      郑保瑞 Pou-Soi Cheang



◎标  签 杜琪峰 | 刘青云 | 香港 | 犯罪 | 悬疑 | 香港电影 | 银河映像 | 韦家辉


◎简  介  


  天才和疯子常常只是同一个人的两种描述。神探陈桂彬(刘青云 饰)就是这样一个人物,和天才画家梵高一样,他也曾经割下自己的耳朵。尽管破案无数,侦探能力超凡,却终被世俗认定是疯子一个,提早从警局里退了休。

探员何家安(安志杰 饰)接到了一桩棘手的案件。案发地在树林,两名警员王 国柱(李国麟 饰)和高志伟(林家栋 饰)办案之后,只有高志伟平安归来,而王国柱和他的枪则神秘失踪。何家安请来陈桂彬为他指点迷津,却未料到陈桂彬的“疯子”行为又一次在侦探过程中表露无遗。他断定高志伟就是此案凶手,并把推理建立在他自己大量的想象之上。他自称能看到高志伟的“七宗罪”,正是这些罪恶把高志伟引向犯罪之路。然而,要何家安相信这一切并不容易,因为他已经被高志伟的演技所迷惑……


◎获奖情况  


  第64届威尼斯电影节(2007)

  金狮奖(提名) 杜琪峰 / 韦家辉


  第27届香港电影金像奖(2008)

  最佳电影(提名) 杜琪峰 / 韦家辉

  最佳导演(提名) 杜琪峰 / 韦家辉

  最佳编剧 欧健儿 / 韦家辉

  最佳男主角(提名) 刘青云

  最佳摄影(提名) 郑兆强

  最佳剪接(提名) Tina Baz

  最佳服装造型设计(提名) 张世杰

  最佳视觉效果(提名) 文少麟


  第2届亚洲电影大奖(2008)

  最佳编剧 欧健儿 / 韦家辉


  第8届华语电影传媒大奖(2008)

  最佳编剧 欧健儿 / 韦家辉


Video
ID : 1
Format : AVC
Format/Info : Advanced Video Codec
Format profile : [email protected]
Format settings : CABAC / 5 Ref Frames
Format settings, CABAC : Yes
Format settings, ReFrames : 5 frames
Codec ID : V_MPEG4/ISO/AVC
Duration : 1 h 29 min
Bit rate : 11.2 Mb/s
Width : 1 920 pixels
Height : 800 pixels
Display aspect ratio : 2.40:1
Frame rate mode : Constant
Frame rate : 24.000 FPS
Color space : YUV
Chroma subsampling : 4:2:0
Bit depth : 8 bits
Scan type : Progressive
Bits/(Pixel*Frame) : 0.304
Stream size : 6.85 GiB (86%)
Writing library : x264 core 67 r1125M 10d6ef0
Encoding settings : cabac=1 / ref=5 / deblock=1:-1:-1 / analyse=0x3:0x113 / me=umh / subme=7 / psy_rd=1.0:0.0 / mixed_ref=1 / me_range=16 / chroma_me=1 / trellis=2 / 8x8dct=1 / cqm=0 / deadzone=21,11 / chroma_qp_offset=-2 / threads=6 / nr=0 / decimate=1 / mbaff=0 / bframes=3 / b_pyramid=0 / b_adapt=2 / b_bias=0 / direct=3 / wpredb=1 / keyint=250 / keyint_min=25 / scenecut=40 / rc=2pass / bitrate=11219 / ratetol=1.0 / qcomp=0.60 / qpmin=10 / qpmax=51 / qpstep=4 / cplxblur=20.0 / qblur=0.5 / vbv_maxrate=50000 / vbv_bufsize=50000 / ip_ratio=1.40 / pb_ratio=1.30 / aq=1:1.00
Language : Chinese
Default : Yes
Forced : No

Audio
ID : 2
Format : DTS
Format/Info : Digital Theater Systems
Codec ID : A_DTS
Duration : 1 h 29 min
Bit rate mode : Constant
Bit rate : 1 509 kb/s
Channel(s) : 6 channels
Channel layout : C L R Ls Rs LFE
Sampling rate : 48.0 kHz
Frame rate : 93.750 FPS (512 SPF)
Bit depth : 24 bits
Compression mode : Lossy
Stream size : 965 MiB (12%)
Language : Chinese
Default : Yes
Forced : No

Text
ID : 3
Format : UTF-8
Codec ID : S_TEXT/UTF8
Codec ID/Info : UTF-8 Plain Text
Language : English
Default : No
Forced : No



1 个附件 售价 大小 下载 时间

Mad.Detective.2007.PROPER.1080p.BluRay.x264-aBD[btbtt.me].torrent 0 金币 40.22K 3458 次 7月前

#1楼
发帖时间:2019-01-30 20:48:11   |   回复数:3
liyouchai
隐世仙人♂
谢谢楼主分享资源
7月前 #2楼
jokingcheung
一代宗师
谢谢分享
7月前 #3楼
911degrees
隐世仙人♂
非常感谢,谢谢分享
7月前 #4楼
游客组