aoloffline
版主

[2010] [韩国] [剧情] [BD-1080P] [BT下载]诗/生命之诗/诗情 Poetry.2010.1080p.BluRay.x264-METH 9.83GB

-->

Poetry.2010.1080p.BluRay.x264-METH


◎译  名 诗 / Poetry / Shi / 生命之诗 / 诗情

◎片  名 시

◎年  代 2010

◎产  地 韩国

◎类  别 剧情

◎语  言 韩语

◎上映日期 2010-05-13(韩国)

◎IMDb评分 7.8/10 from 8324 users

◎IMDb链接 http://www.imdb.com/title/tt1287878

◎豆瓣评分 8.4/10 from 19812 users

◎豆瓣链接 https://movie.douban.com/subject/3212965/

◎BT之家整理 http://www.51btbtt.com/

◎片  长 139分钟

◎导  演 李沧东 Chang-dong Lee

◎编  剧 李沧东 Chang-dong Lee

◎主  演 尹静姬 Jeong-hie Yun

      李大为 David Lee

      安内相 Nae-sang Ahn

      金熙罗 Huira Kim



◎标  签 李沧东 | 韩国 | 韩国电影 | 文艺 | 2010 | 诗 | 剧情 | 戛纳


◎简  介  


  时髦的打扮掩饰了岁月在她的身上留下痕迹,66岁的美子(尹静姬 饰)像一朵摇曳在街边的小花一样绽放着自己暮年的美丽。

美子靠做钟点工赚些小钱,与读初中的外孙独自生活的日子虽然清贫,但却丝毫没有影响她对于生活的热情。虽然已经确诊患上了老年痴呆症,但她却依然酷爱诗歌,不仅时常参加诗歌朗诵会,而且开始学习写诗。她总是留意观察生活中的点滴,以便捕捉随时可能出现的灵感,然后把它们记录在随身携带的小本上。然而,如同写诗的灵感并不会轻易出现一样,生活也并非表面的那样轻松和容易……

在63届戛纳电影节上,李沧东凭借此片获得最佳编剧奖。


◎获奖情况  


  第63届戛纳电影节(2010)

  主竞赛单元 金棕榈奖(提名) 李沧东

  主竞赛单元 最佳编剧 李沧东

  天主教人道精神奖-特别提及 李沧东


  第5届亚洲电影大奖(2011)

  最佳电影(提名)

  最佳导演 李沧东

  最佳编剧 李沧东


  第32届波士顿影评人协会奖(2011)

  最佳外语片(提名)


Video
ID : 1
Format : AVC
Format/Info : Advanced Video Codec
Format profile : [email protected]
Format settings : CABAC / 4 Ref Frames
Format settings, CABAC : Yes
Format settings, ReFrames : 4 frames
Codec ID : V_MPEG4/ISO/AVC
Duration : 2 h 19 min
Bit rate : 8 608 kb/s
Width : 1 920 pixels
Height : 1 040 pixels
Display aspect ratio : 1.85:1
Frame rate mode : Constant
Frame rate : 24.000 FPS
Color space : YUV
Chroma subsampling : 4:2:0
Bit depth : 8 bits
Scan type : Progressive
Bits/(Pixel*Frame) : 0.180
Stream size : 8.17 GiB (83%)
Writing library : x264 core 120 r2120 0c7dab9
Encoding settings : cabac=1 / ref=4 / deblock=1:0:0 / analyse=0x3:0x133 / me=umh / subme=7 / psy=1 / psy_rd=1.00:0.00 / mixed_ref=1 / me_range=16 / chroma_me=1 / trellis=1 / 8x8dct=1 / cqm=0 / deadzone=21,11 / fast_pskip=0 / chroma_qp_offset=-2 / threads=12 / sliced_threads=0 / nr=0 / decimate=1 / interlaced=0 / bluray_compat=0 / constrained_intra=0 / bframes=3 / b_pyramid=2 / b_adapt=2 / b_bias=0 / direct=3 / weightb=1 / open_gop=0 / weightp=2 / keyint=250 / keyint_min=24 / scenecut=40 / intra_refresh=0 / rc_lookahead=50 / rc=2pass / mbtree=1 / bitrate=8608 / ratetol=1.0 / qcomp=0.60 / qpmin=0 / qpmax=69 / qpstep=4 / cplxblur=20.0 / qblur=0.5 / ip_ratio=1.40 / aq=1:1.00
Language : English
Default : Yes
Forced : No

Audio
ID : 2
Format : DTS
Format/Info : Digital Theater Systems
Codec ID : A_DTS
Duration : 2 h 19 min
Bit rate mode : Constant
Bit rate : 1 509 kb/s
Channel(s) : 6 channels
Channel layout : C L R Ls Rs LFE
Sampling rate : 48.0 kHz
Frame rate : 93.750 FPS (512 SPF)
Bit depth : 24 bits
Compression mode : Lossy
Stream size : 1.47 GiB (15%)
Language : Korean
Default : Yes
Forced : No

Text
ID : 3
Format : UTF-8
Codec ID : S_TEXT/UTF8
Codec ID/Info : UTF-8 Plain Text
Language : English
Default : Yes
Forced : No


1 个附件 售价 大小 下载 时间

Poetry.2010.1080p.BluRay.x264-METH[btbtt.me].torrent 0 金币 49.65K 1092 次 3月前

#1楼
发帖时间:2019-02-02 09:50:23   |   回复数:3
tanchoohoon
武林盟主
感谢楼主分享
3月前 #2楼
liyouchai
超凡入圣№
谢谢楼主分享资源
3月前 #3楼
911degrees
隐世仙人♂
非常感谢,谢谢分享
3月前 #4楼
游客组