aoloffline
版主

[2007] [香港] [犯罪] [BD-1080P] [BT下载]门徒 Protege.2007.1080p.BluRay.x264-SSF 7.94GB

-->

Protege.2007.1080p.BluRay.x264-SSF


◎译  名 门徒 / Protégé

◎片  名 門徒

◎年  代 2007

◎产  地 香港

◎类  别 剧情 / 惊悚 / 犯罪

◎语  言 粤语 / 英语 / 泰语 / 汉语普通话

◎上映日期 2007-02-13(中国大陆/香港)

◎IMDb评分 7.3/10 from 4387 users

◎IMDb链接 http://www.imdb.com/title/tt0841150

◎豆瓣评分 7.6/10 from 150813 users

◎豆瓣链接 https://movie.douban.com/subject/1890784/

◎BT之家整理 http://www.51btbtt.com/

◎片  长 106 分钟

◎导  演 尔冬升 Tung-shing Yee

◎编  剧 尔冬升 Tung-shing Yee / 龙文康 Man Hong Loong / 高新 Xin Gao / 秦天南 Tin Nam Chun

◎主  演 刘德华 Andy Lau

      吴彦祖 Daniel Wu

      古天乐 Louis Koo

      张静初 Jingchu Zhang

      袁咏仪 Anita Yuen

      廖启智 Kai Chi Liu

      何美钿 Mei-tian He

      尔冬升 Tung-shing Yee



◎标  签 香港 | 吴彦祖 | 尔冬升 | 香港电影 | 刘德华 | 门徒 | 犯罪 | 古天乐


◎简  介  


  阿昆(刘德华饰)长年垄断了海洛因市场,虽视追随8年多的阿力(吴彦祖饰)为接班人,但阿昆一向小心行事,从没透露过“货仓“、加工场的位置也未见过其他“同事”。阿昆打算把自己的生意全权交由阿力打理,阿力渐渐知道了更多毒品市场中的秘密。

8年来阿力以卧底的身份搜集毒贩的全部资料,但他对吸毒者阿芬(张静初饰)投入了感情,阿芬的景况却令他对自己边缘人的身份感到更加迷惘。

斗志斗勇的过程中,阿力最终取得了阿昆的完全信任,8年来的追踪,也有了终结。


◎获奖情况  


  第44届台北金马影展(2007)

  金马奖 最佳导演(提名) 尔冬升

  金马奖 最佳男配角(提名) 古天乐

  金马奖 最佳原著剧本(提名) 尔冬升 / 龙文康 / 高新 / 秦天南


  第27届香港电影金像奖(2008)

  最佳电影(提名) 陈可辛

  最佳导演(提名) 尔冬升

  最佳编剧(提名) 尔冬升 / Sun Go / 秦天南 / 龙文康

  最佳女主角(提名) 张静初

  最佳男配角 刘德华

  最佳男配角(提名) 古天乐

  最佳女配角(提名) 袁咏仪

  最佳新演员(提名) 谢芷彤

  最佳摄影(提名) 姜国民

  最佳剪接 邝志良

  最佳美术指导(提名) 奚仲文 / 麦国强

  最佳动作设计(提名) 钱嘉乐

  最佳原创电影音乐(提名) 金培达

  最佳音响效果(提名) 曾景祥

  最佳视觉效果(提名) Ching Han Wong / 何兆麟 / Kim-Hung Chow


Video
ID : 1
Format : AVC
Format/Info : Advanced Video Codec
Format profile : [email protected]
Format settings : CABAC / 5 Ref Frames
Format settings, CABAC : Yes
Format settings, ReFrames : 5 frames
Codec ID : V_MPEG4/ISO/AVC
Duration : 1 h 48 min
Bit rate : 8 933 kb/s
Width : 1 920 pixels
Height : 816 pixels
Display aspect ratio : 2.35:1
Frame rate mode : Constant
Frame rate : 23.976 (24000/1001) FPS
Color space : YUV
Chroma subsampling : 4:2:0
Bit depth : 8 bits
Scan type : Progressive
Bits/(Pixel*Frame) : 0.238
Stream size : 6.63 GiB (84%)
Writing library : x264 core 100 r1659 57b2e56
Encoding settings : cabac=1 / ref=5 / deblock=1:0:0 / analyse=0x3:0x133 / me=umh / subme=7 / psy=1 / psy_rd=1.00:0.15 / mixed_ref=1 / me_range=16 / chroma_me=1 / trellis=1 / 8x8dct=1 / cqm=0 / deadzone=21,11 / fast_pskip=0 / chroma_qp_offset=-3 / threads=12 / sliced_threads=0 / nr=0 / decimate=0 / interlaced=0 / constrained_intra=0 / bframes=3 / b_pyramid=2 / b_adapt=1 / b_bias=0 / direct=1 / weightb=1 / open_gop=0 / weightp=2 / keyint=250 / keyint_min=25 / scenecut=40 / intra_refresh=0 / rc_lookahead=40 / rc=2pass / mbtree=1 / bitrate=8933 / ratetol=1.0 / qcomp=0.60 / qpmin=10 / qpmax=51 / qpstep=4 / cplxblur=20.0 / qblur=0.5 / ip_ratio=1.40 / aq=2:1.00
Language : English
Default : No
Forced : No

Audio
ID : 2
Format : DTS
Format/Info : Digital Theater Systems
Codec ID : A_DTS
Duration : 1 h 48 min
Bit rate mode : Constant
Bit rate : 1 509 kb/s
Channel(s) : 6 channels
Channel layout : C L R Ls Rs LFE
Sampling rate : 48.0 kHz
Frame rate : 93.750 FPS (512 SPF)
Bit depth : 16 bits
Compression mode : Lossy
Stream size : 1.15 GiB (14%)
Language : Chinese
Default : Yes
Forced : No

Text
ID : 3
Format : UTF-8
Codec ID : S_TEXT/UTF8
Codec ID/Info : UTF-8 Plain Text
Language : English
Default : Yes
Forced : No



1 个附件 售价 大小 下载 时间

Protege.2007.1080p.BluRay.x264-SSF[btbtt.me].torrent 0 金币 40.18K 5124 次 7月前

#1楼
发帖时间:2019-02-02 09:54:06   |   回复数:4
liyouchai
隐世仙人♂
谢谢楼主分享资源
7月前 #2楼
jokingcheung
一代宗师
谢谢分享
7月前 #3楼
911degrees
隐世仙人♂
非常感谢,谢谢分享
7月前 #4楼
pwolves
武林盟主
谢谢分享
2月前 #5楼
游客组