aoloffline
版主

[2016] [韩国] [惊悚] [BD-1080P] [BT下载]密探/密侦/秘密间谍 2016.1080p.BluRay.x264.DTS-FGT 9.44GB

-->

The.Age.of.Shadows.2016.KOREAN.1080p.BluRay.x264.DTS-FGT


◎译  名 密探 / Mil-jeong / The Age of Shadows / 密侦 / 秘密间谍

◎片  名 밀정

◎年  代 2016

◎产  地 韩国

◎类  别 剧情 / 动作 / 惊悚

◎语  言 韩语 / 日语 / 汉语普通话 / 英语

◎上映日期 2016-09-03(威尼斯电影节) / 2016-09-07(韩国)

◎IMDb评分 7.1/10 from 6200 users

◎IMDb链接 http://www.imdb.com/title/tt4914580

◎豆瓣评分 6.5/10 from 9729 users

◎豆瓣链接 https://movie.douban.com/subject/26374671/

◎BT之家整理 http://www.51btbtt.com/

◎片  长 140分钟

◎导  演 金知云 Jee-woon Kim

◎编  剧 金知云 Jee-woon Kim / 朴钟泰 Jong-dae Park / 李智敏 Ji-min Lee

◎主  演 宋康昊 Kang-ho Song

      孔侑 Yoo Gong

      韩智敏 Ji-min Han

      严泰久 Tae-goo Eom

      申成禄 Sung-rok Shin

      李秉宪 Byeng-hun Lee



◎标  签 韩国 | 孔侑 | 宋康昊 | 韩国电影 | 2016 | 剧情 | 动作 | 谍战


◎简  介  


  风起云涌的20世纪20年代,整个世界都笼罩在一场巨大的风暴之中。风云突变的京城,来自各国的势力碰撞角逐,危机一触即发。朝鲜人出身的日本警察李政出(宋康昊 饰)深得老奸巨猾的日本警务局部长东村(鹤见辰吾 饰)的器重,在一次追查义烈团的行动中,曾经的同事金长玉自杀,随后李政出成为了寻找义烈团领导人的急先锋。通过细心排查,李找到了金优进(孔刘 饰)所经营的古董店,而金恰恰是义烈团的干部。最近一段时间,义烈团策划将一批炸药通过火车从上海运往京城,计划炸掉日本警察局。金优进大胆将李政出引荐给义烈团团长郑彩山(李秉宪 饰),希望策反这个朝鲜人,帮助他们完成计划。无论如何,良心未泯的李政出被绑上了一条危机重重的小船,他不得不作出抉择……

本片荣获第36届韩国影评奖最佳作品奖。


◎获奖情况  


  第37届韩国电影青龙奖(2016)

  最佳影片(提名) 金知云

  最佳导演(提名) 金知云

  最佳男主角(提名) 宋康昊

  最佳男配角(提名) 严泰九

  最佳美术(提名)

  最佳配乐(提名)

  最佳照明(提名)


  第11届亚洲电影大奖(2017)

  最佳电影(提名)

  最佳摄影(提名) 金智龙

  最佳原创音乐 李圣贤


  第53届百想艺术大赏(2017)

  电影类 最佳影片(提名)

  电影类 最佳导演 金知云

  电影类 最佳男主角 宋康昊

  电影类 最佳男配角(提名) 严泰九

  电影类 最佳女配角(提名) 韩智敏

  电影类 最佳编剧(提名) 朴钟泰 / 李智敏


  第53届韩国电影大钟奖(2016)

  最佳影片(提名)

  最佳导演(提名) 金知云

  最佳男主角(提名) 宋康昊

  最佳男配角 严泰久

  最佳女配角(提名) 韩智敏

  最佳剧本(提名) 金知云

  最佳摄影(提名) 金智龙

  最佳剪辑(提名)

  最佳美术

  最佳音乐(提名)

  最佳服装(提名)

  最佳录音(提名)

  最佳照明(提名)


Video
ID : 1
Format : AVC
Format/Info : Advanced Video Codec
Format profile : [email protected]
Format settings : CABAC / 5 Ref Frames
Format settings, CABAC : Yes
Format settings, ReFrames : 5 frames
Codec ID : V_MPEG4/ISO/AVC
Duration : 2 h 20 min
Bit rate : 8 100 kb/s
Width : 1 920 pixels
Height : 808 pixels
Display aspect ratio : 2.40:1
Frame rate mode : Constant
Frame rate : 23.976 (24000/1001) FPS
Color space : YUV
Chroma subsampling : 4:2:0
Bit depth : 8 bits
Scan type : Progressive
Bits/(Pixel*Frame) : 0.218
Stream size : 7.96 GiB (84%)
Writing library : x264 core 148 r2744 b97ae06
Encoding settings : cabac=1 / ref=5 / deblock=1:-3:-3 / analyse=0x3:0x113 / me=umh / subme=8 / psy=1 / psy_rd=1.00:0.25 / mixed_ref=1 / me_range=24 / chroma_me=1 / trellis=1 / 8x8dct=1 / cqm=0 / deadzone=21,11 / fast_pskip=1 / chroma_qp_offset=-4 / threads=25 / lookahead_threads=4 / sliced_threads=0 / nr=0 / decimate=1 / interlaced=0 / bluray_compat=0 / constrained_intra=0 / bframes=3 / b_pyramid=2 / b_adapt=1 / b_bias=0 / direct=3 / weightb=1 / open_gop=0 / weightp=2 / keyint=240 / keyint_min=24 / scenecut=40 / intra_refresh=0 / rc_lookahead=50 / rc=2pass / mbtree=1 / bitrate=8100 / ratetol=1.0 / qcomp=0.60 / qpmin=0 / qpmax=69 / qpstep=4 / cplxblur=20.0 / qblur=0.5 / ip_ratio=1.40 / aq=1:0.75
Default : Yes
Forced : No

Audio
ID : 2
Format : DTS
Format/Info : Digital Theater Systems
Codec ID : A_DTS
Duration : 2 h 20 min
Bit rate mode : Constant
Bit rate : 1 509 kb/s
Channel(s) : 6 channels
Channel layout : C L R Ls Rs LFE
Sampling rate : 48.0 kHz
Frame rate : 93.750 FPS (512 SPF)
Bit depth : 24 bits
Compression mode : Lossy
Stream size : 1.48 GiB (16%)
Language : Korean
Default : Yes
Forced : No

Text
ID : 3
Format : UTF-8
Codec ID : S_TEXT/UTF8
Codec ID/Info : UTF-8 Plain Text
Duration : 2 h 15 min
Bit rate : 33 b/s
Count of elements : 1064
Stream size : 33.6 KiB (0%)
Language : English
Default : Yes
Forced : Yes

Menu
00:00:00.000 : en:00:00:00.000
00:12:23.159 : en:00:12:23.159
00:19:22.912 : en:00:19:22.912
00:25:13.595 : en:00:25:13.595
00:35:21.494 : en:00:35:21.494
00:49:13.117 : en:00:49:13.117
00:59:53.090 : en:00:59:53.090
01:08:42.368 : en:01:08:42.368
01:18:15.733 : en:01:18:15.733
01:32:29.627 : en:01:32:29.627
01:39:12.363 : en:01:39:12.363
01:48:47.271 : en:01:48:47.271
02:00:13.498 : en:02:00:13.498
02:12:56.886 : en:02:12:56.886



1 个附件 售价 大小 下载 时间

The.Age.of.Shadows.2016.KOREAN.1080p.BluRay.x264.DTS-FGT[btbtt.me].torrent 0 金币 47.74K 2226 次 7月前

#1楼
发帖时间:2019-02-07 10:52:11   |   回复数:2
liyouchai
隐世仙人♂
谢谢楼主分享资源
7月前 #2楼
911degrees
隐世仙人♂
非常感谢,谢谢分享
7月前 #3楼
游客组