aoloffline
版主

[2018] [欧美] [惊悚] [WEB-1080P] [BT下载]报应/因果 Karma.2018.1080p.WEB-DL.DD5.1.H264-FGT 3.33GB

-->

Karma.2018.1080p.WEB-DL.DD5.1.H264-FGT

◎译  名 报应 / 因果(台)

◎片  名 Karma

◎年  代 2018

◎产  地 美国

◎类  别 动作 / 惊悚 / 恐怖

◎语  言 英语

◎上映日期 2018-10-13(美国)

◎IMDb评分 5.0/10 from 77 users

◎IMDb链接 http://www.imdb.com/title/tt8637922

◎BT之家整理 http://www.51btbtt.com/

◎导  演 Nick Simon

◎编  剧 Daniel Gilboy

◎主  演 曼德拉·范·皮布尔斯 Mandela Van Peebles

      Brytni Sarpy

      Kanoa Goo




◎简  介  


  When recent college graduate Manny has trouble making ends meet, his father-in-law offers him a job evicting delinquent tenants. Manny soon finds himself unleashing a karma demon which stalks him at every turn.


Video
ID : 1
Format : AVC
Format/Info : Advanced Video Codec
Format profile : High@L4
Format settings : CABAC / 4 Ref Frames
Format settings, CABAC : Yes
Format settings, ReFrames : 4 frames
Codec ID : V_MPEG4/ISO/AVC
Duration : 1 h 25 min
Bit rate : 5 182 kb/s
Width : 1 916 pixels
Height : 1 072 pixels
Display aspect ratio : 16:9
Frame rate mode : Constant
Frame rate : 23.976 FPS
Color space : YUV
Chroma subsampling : 4:2:0
Bit depth : 8 bits
Scan type : Progressive
Bits/(Pixel*Frame) : 0.105
Stream size : 3.10 GiB (93%)
Title : Karma.2018.1080p.WEB-DL.DD5.1.H.264-FGT
Language : English
Default : Yes
Forced : No
Color range : Limited
Color primaries : BT.709
Transfer characteristics : BT.709
Matrix coefficients : BT.709

Audio
ID : 2
Format : AC-3
Format/Info : Audio Coding 3
Commercial name : Dolby Digital
Codec ID : A_AC3
Duration : 1 h 25 min
Bit rate mode : Constant
Bit rate : 384 kb/s
Channel(s) : 6 channels
Channel layout : L R C LFE Ls Rs
Sampling rate : 48.0 kHz
Frame rate : 31.250 FPS (1536 SPF)
Bit depth : 16 bits
Compression mode : Lossy
Stream size : 235 MiB (7%)
Title : Karma.2018.1080p.WEB-DL.DD5.1.H.264-FGT
Language : English
Service kind : Complete Main
Default : Yes
Forced : No

Menu
00:00:00.000 : en:1
00:04:16.839 : en:2
00:09:03.165 : en:3
00:14:07.301 : en:4
00:20:42.195 : en:5
00:24:48.608 : en:6
00:30:46.631 : en:7
00:35:21.696 : en:8
00:40:06.147 : en:9
00:48:18.179 : en:10
00:53:33.494 : en:11
00:59:20.340 : en:12
01:04:59.012 : en:13
01:10:34.721 : en:14
01:16:22.776 : en:15
01:22:03.323 : en:16




1 个附件 售价 大小 下载 时间

Karma.2018.1080p.WEB-DL.DD5.1.H264-FGT[btbtt.me].torrent 0 金币 33.80K 259 次 5天前

#1楼
发帖时间:2019-02-11 22:23:07   |   回复数:2
liyouchai
超凡入圣№
谢谢楼主分享资源
5天前 #2楼
911degrees
隐世仙人♂
非常感谢,谢谢分享
5天前 #3楼
游客组