aoloffline
版主

[2011] [欧美] [喜剧] [WEB-1080P] [BT下载]失败者拿走一切 Losers.Take.All.2011.1080p.AMZN.WEBRip.DDP5.1.x264-iKA 2.58GB

-->

Losers.Take.All.2011.1080p.AMZN.WEBRip.DDP5.1.x264-iKA

◎译  名 失败者拿走一切 

◎片  名 Losers Take All

◎年  代 2011

◎类  别 喜剧

◎上映日期 2013-10-25(美国)

◎IMDb评分 6.6/10 from 292 users

◎IMDb链接 http://www.imdb.com/title/tt1426748

◎BT之家整理 http://8btbtt.com/ 

◎导  演 Alex Steyermark

◎编  剧 Winn Coslick

◎主  演 凯尔·加尔纳 Kyle Gallner

      坦妮娅·雷蒙德 Tania Raymonde

      艾莉森·斯卡里奥缇 Allison Scagliotti

      亚伦·希梅尔斯坦 Aaron Himelstein

      Jason Burkey

      Alexia Rasmussen



◎简  介  


  Losers Take All is a comedy in which we follow "The Fingers|" a fictional punk-pop band stumbling and staggering their way in the opposite direction of mainstreamsuccess| circa 1986. Fingers are faced with the unlikely opportunity of committing the ultimate indie rock sin: selling out. Do they stay true to theirnon-commercial DIY sound and ethos? Do they get in bed with corporate rock? Or do they simply keep getting wasted and implode into oblivion?


Video
ID : 1
Format : AVC
Format/Info : Advanced Video Codec
Format profile : [email protected]
Format settings : CABAC / 4 Ref Frames
Format settings, CABAC : Yes
Format settings, ReFrames : 4 frames
Codec ID : V_MPEG4/ISO/AVC
Duration : 1 h 35 min
Bit rate : 3 215 kb/s
Width : 1 920 pixels
Height : 1 080 pixels
Display aspect ratio : 16:9
Frame rate mode : Constant
Frame rate : 23.976 (24000/1001) FPS
Color space : YUV
Chroma subsampling : 4:2:0
Bit depth : 8 bits
Scan type : Progressive
Bits/(Pixel*Frame) : 0.065
Stream size : 2.15 GiB (83%)
Language : English
Default : Yes
Forced : No
Color range : Limited
Color primaries : BT.709
Transfer characteristics : BT.709
Matrix coefficients : BT.709

Audio
ID : 2
Format : E-AC-3
Format/Info : Enhanced AC-3
Commercial name : Dolby Digital Plus
Codec ID : A_EAC3
Duration : 1 h 35 min
Bit rate mode : Constant
Bit rate : 640 kb/s
Channel(s) : 6 channels
Channel layout : L R C LFE Ls Rs
Sampling rate : 48.0 kHz
Frame rate : 31.250 FPS (1536 SPF)
Compression mode : Lossy
Stream size : 438 MiB (17%)
Language : English
Service kind : Complete Main
Default : Yes
Forced : No

Text
ID : 3
Format : UTF-8
Codec ID : S_TEXT/UTF8
Codec ID/Info : UTF-8 Plain Text
Duration : 1 h 35 min
Bit rate : 77 b/s
Count of elements : 1861
Stream size : 53.8 KiB (0%)
Language : English
Default : No
Forced : No



1 个附件 售价 大小 下载 时间

Losers.Take.All.2011.1080p.AMZN.WEBRip.DDP5.1.x264-iKA[btbtt.me].torrent 0 金币 26.29K 329 次 6月前

#1楼
发帖时间:2019-02-14 20:27:25   |   回复数:2
liyouchai
隐世仙人♂
谢谢楼主分享资源
6月前 #2楼
911degrees
隐世仙人♂
非常感谢,谢谢分享
6月前 #3楼
游客组