aoloffline
超凡入圣№

[2011] [欧美] [喜剧] [BD-Remux] [BT下载]爱情无线牵 2011.1080p.BluRay.REMUX.AVC.DTS-HD.MA.5.1-FGT 27.69GB

-->

No.Strings.Attached.2011.1080p.BluRay.REMUX.AVC.DTS-HD.MA.5.1-FGT


◎译  名 爱情无线牵 / 不求回报 / 无性不爱 / 枕边无情人(港) / 藕断丝未连 / 饭饭之交(台)

◎片  名 No Strings Attached

◎年  代 2011

◎产  地 美国

◎类  别 喜剧 / 爱情

◎语  言 英语

◎上映日期 2011-01-11(加州首映) / 2011-01-21(美国)

◎IMDb评分 6.2/10 from 195315 users

◎IMDb链接 http://www.imdb.com/title/tt1411238

◎豆瓣评分 6.6/10 from 83571 users

◎豆瓣链接 https://movie.douban.com/subject/3652302/

◎BT之家整理 http://8btbtt.com/ 

◎片  长 108分钟

◎导  演 伊万·雷特曼 Ivan Reitman

◎编  剧 Elizabeth Meriwether

◎主  演 娜塔丽·波曼 Natalie Portman

      艾什顿·库彻 Ashton Kutcher

      奥莉薇·瑟尔比 Olivia Thirlby

      格蕾塔·葛韦格 Greta Gerwig

      凯文·克莱恩 Kevin Kline

      奥菲利亚·拉维邦德 Ophelia Lovibond



◎标  签 爱情 | 美国 | 喜剧 | 2011 | 轻喜剧 | 浪漫 | 搞笑 | 生活


◎简  介  


  在亚当(阿什顿•库奇 Ashton Kutcher 饰)的成长经历中,艾玛(娜塔丽•波特曼 Natalie Portman 饰)总是时不时的出现,所以两个人可以算是朋友。一次,亚当探望自己明星父亲时发现,父亲居然和自己的前女友同居了,这让亚当无论如何也不能接受,在遭遇情感的重创之后,亚当决定要随便找一个女性朋友上床发泻抑郁。宿醉的亚当醒来之后,发现自己居然裸着身体在艾玛家里,在达成“只谈性不谈爱”的协议之后,两人便开始时不时的幽会。随着时间的推移,亚当发现自己似乎对身边这个特立独行的女孩动了心,但是艾玛却表示不能接受亚当的爱意,所以他们最终决定结束这种关系。但是,分手之后二人才发现,他们早已习惯了彼此……


◎获奖情况  


  第20届MTV电影奖(2011)

  MTV电影奖 最佳喜剧表演(提名) 阿什顿·库彻


  第13届美国青少年选择奖(2011)

  最佳爱情喜剧电影(提名)

  最佳爱情喜剧电影男演员 阿什顿·库彻

  最佳爱情喜剧电影女演员(提名) 娜塔莉·波特曼


Video
ID : 1
Format : AVC
Format/Info : Advanced Video Codec
Format profile : [email protected]
Format settings : CABAC / 4 Ref Frames
Format settings, CABAC : Yes
Format settings, ReFrames : 4 frames
Codec ID : V_MPEG4/ISO/AVC
Duration : 1 h 47 min
Bit rate mode : Variable
Bit rate : 29.0 Mb/s
Maximum bit rate : 36.0 Mb/s
Width : 1 920 pixels
Height : 1 080 pixels
Display aspect ratio : 16:9
Frame rate mode : Constant
Frame rate : 23.976 (24000/1001) FPS
Color space : YUV
Chroma subsampling : 4:2:0
Bit depth : 8 bits
Scan type : Progressive
Bits/(Pixel*Frame) : 0.583
Stream size : 21.9 GiB (79%)
Title : No.Strings.Attached.2011.1080p.BluRay.REMUX.AVC.DTS-HD.MA.5.1-FGT
Language : English
Default : No
Forced : No
Color range : Limited
Color primaries : BT.709
Transfer characteristics : BT.709
Matrix coefficients : BT.709

Audio #1
ID : 2
Format : DTS XLL
Format/Info : Digital Theater Systems
Commercial name : DTS-HD Master Audio
Codec ID : A_DTS
Duration : 1 h 47 min
Bit rate mode : Variable
Bit rate : 3 354 kb/s
Channel(s) : 6 channels
Channel layout : C L R Ls Rs LFE
Sampling rate : 48.0 kHz
Frame rate : 93.750 FPS (512 SPF)
Bit depth : 24 bits
Compression mode : Lossless
Stream size : 2.53 GiB (9%)
Title : No.Strings.Attached.2011.1080p.BluRay.REMUX.AVC.DTS-HD.MA.5.1-FGT
Language : English
Default : Yes
Forced : No

Audio #2
ID : 3
Format : DTS
Format/Info : Digital Theater Systems
Codec ID : A_DTS
Duration : 1 h 47 min
Bit rate mode : Constant
Bit rate : 1 509 kb/s
Channel(s) : 6 channels
Channel layout : C L R Ls Rs LFE
Sampling rate : 48.0 kHz
Frame rate : 93.750 FPS (512 SPF)
Bit depth : 24 bits
Compression mode : Lossy
Stream size : 1.14 GiB (4%)
Title : No.Strings.Attached.2011.1080p.BluRay.REMUX.AVC.DTS-HD.MA.5.1-FGT
Language : English
Default : No
Forced : No

Audio #3
ID : 4
Format : AC-3
Format/Info : Audio Coding 3
Commercial name : Dolby Digital
Codec ID : A_AC3
Duration : 1 h 47 min
Bit rate mode : Constant
Bit rate : 640 kb/s
Channel(s) : 6 channels
Channel layout : L R C LFE Ls Rs
Sampling rate : 48.0 kHz
Frame rate : 31.250 FPS (1536 SPF)
Bit depth : 16 bits
Compression mode : Lossy
Stream size : 494 MiB (2%)
Title : No.Strings.Attached.2011.1080p.BluRay.REMUX.AVC.DTS-HD.MA.5.1-FGT
Language : French
Service kind : Complete Main
Default : No
Forced : No

Audio #4
ID : 5
Format : AC-3
Format/Info : Audio Coding 3
Commercial name : Dolby Digital
Codec ID : A_AC3
Duration : 1 h 47 min
Bit rate mode : Constant
Bit rate : 640 kb/s
Channel(s) : 6 channels
Channel layout : L R C LFE Ls Rs
Sampling rate : 48.0 kHz
Frame rate : 31.250 FPS (1536 SPF)
Bit depth : 16 bits
Compression mode : Lossy
Stream size : 494 MiB (2%)
Title : No.Strings.Attached.2011.1080p.BluRay.REMUX.AVC.DTS-HD.MA.5.1-FGT
Language : Spanish
Service kind : Complete Main
Default : No
Forced : No

Audio #5
ID : 6
Format : AC-3
Format/Info : Audio Coding 3
Commercial name : Dolby Digital
Codec ID : A_AC3
Duration : 1 h 47 min
Bit rate mode : Constant
Bit rate : 640 kb/s
Channel(s) : 6 channels
Channel layout : L R C LFE Ls Rs
Sampling rate : 48.0 kHz
Frame rate : 31.250 FPS (1536 SPF)
Bit depth : 16 bits
Compression mode : Lossy
Stream size : 494 MiB (2%)
Title : No.Strings.Attached.2011.1080p.BluRay.REMUX.AVC.DTS-HD.MA.5.1-FGT
Language : Portuguese
Service kind : Complete Main
Default : No
Forced : No

Audio #6
ID : 7
Format : AC-3
Format/Info : Audio Coding 3
Commercial name : Dolby Digital
Codec ID : A_AC3
Duration : 1 h 47 min
Bit rate mode : Constant
Bit rate : 640 kb/s
Channel(s) : 6 channels
Channel layout : L R C LFE Ls Rs
Sampling rate : 48.0 kHz
Frame rate : 31.250 FPS (1536 SPF)
Bit depth : 16 bits
Compression mode : Lossy
Stream size : 494 MiB (2%)
Title : No.Strings.Attached.2011.1080p.BluRay.REMUX.AVC.DTS-HD.MA.5.1-FGT
Language : English
Service kind : Complete Main
Default : No
Forced : No

Audio #7
ID : 8
Format : AC-3
Format/Info : Audio Coding 3
Commercial name : Dolby Digital
Codec ID : A_AC3
Duration : 1 h 47 min
Bit rate mode : Constant
Bit rate : 224 kb/s
Channel(s) : 2 channels
Channel layout : L R
Sampling rate : 48.0 kHz
Frame rate : 31.250 FPS (1536 SPF)
Bit depth : 16 bits
Compression mode : Lossy
Stream size : 173 MiB (1%)
Title : No.Strings.Attached.2011.1080p.BluRay.REMUX.AVC.DTS-HD.MA.5.1-FGT
Language : English
Service kind : Complete Main
Default : No
Forced : No

Text #1
ID : 9
Format : PGS
Muxing mode : zlib
Codec ID : S_HDMV/PGS
Codec ID/Info : Picture based subtitle format used on BDs/HD-DVDs
Duration : 1 h 41 min
Bit rate : 54.7 kb/s
Count of elements : 2990
Stream size : 39.6 MiB (0%)
Title : English-PGS
Language : English
Default : Yes
Forced : No

Text #2
ID : 10
Format : PGS
Muxing mode : zlib
Codec ID : S_HDMV/PGS
Codec ID/Info : Picture based subtitle format used on BDs/HD-DVDs
Duration : 1 h 42 min
Bit rate : 58.5 kb/s
Count of elements : 3214
Stream size : 42.7 MiB (0%)
Title : English-SDH-PGS
Language : English
Default : No
Forced : No

Text #3
ID : 11
Format : PGS
Muxing mode : zlib
Codec ID : S_HDMV/PGS
Codec ID/Info : Picture based subtitle format used on BDs/HD-DVDs
Duration : 1 h 41 min
Bit rate : 40.0 kb/s
Count of elements : 2696
Stream size : 29.1 MiB (0%)
Title : French-PGS
Language : French
Default : No
Forced : No

Text #4
ID : 12
Format : PGS
Muxing mode : zlib
Codec ID : S_HDMV/PGS
Codec ID/Info : Picture based subtitle format used on BDs/HD-DVDs
Duration : 1 h 41 min
Bit rate : 46.1 kb/s
Count of elements : 2820
Stream size : 33.6 MiB (0%)
Title : Spanish-PGS
Language : Spanish
Default : No
Forced : No

Text #5
ID : 13
Format : PGS
Muxing mode : zlib
Codec ID : S_HDMV/PGS
Codec ID/Info : Picture based subtitle format used on BDs/HD-DVDs
Duration : 1 h 41 min
Bit rate : 46.5 kb/s
Count of elements : 2856
Stream size : 33.9 MiB (0%)
Title : Portuguese-PGS
Language : Portuguese
Default : No
Forced : No

Text #6
ID : 14
Format : PGS
Muxing mode : zlib
Codec ID : S_HDMV/PGS
Codec ID/Info : Picture based subtitle format used on BDs/HD-DVDs
Duration : 1 h 41 min
Bit rate : 220 b/s
Count of elements : 24
Stream size : 163 KiB (0%)
Title : French-FORCED-PGS
Language : French
Default : No
Forced : No

Text #7
ID : 15
Format : PGS
Muxing mode : zlib
Codec ID : S_HDMV/PGS
Codec ID/Info : Picture based subtitle format used on BDs/HD-DVDs
Duration : 1 h 41 min
Bit rate : 225 b/s
Count of elements : 24
Stream size : 167 KiB (0%)
Title : Spanish-FORCED-PGS
Language : Spanish
Default : No
Forced : No

Text #8
ID : 16
Format : PGS
Muxing mode : zlib
Codec ID : S_HDMV/PGS
Codec ID/Info : Picture based subtitle format used on BDs/HD-DVDs
Duration : 1 h 41 min
Bit rate : 244 b/s
Count of elements : 24
Stream size : 181 KiB (0%)
Title : Portuguese-FORCED-PGS
Language : Portuguese
Default : No
Forced : No

Menu
00:00:00.000 : en:Chapter 01
00:05:32.206 : en:Chapter 02
00:10:04.353 : en:Chapter 03
00:17:38.474 : en:Chapter 04
00:25:59.391 : en:Chapter 05
00:34:34.280 : en:Chapter 06
00:42:40.182 : en:Chapter 07
00:48:48.467 : en:Chapter 08
00:57:07.382 : en:Chapter 09
01:05:35.514 : en:Chapter 10
01:13:35.786 : en:Chapter 11
01:18:54.062 : en:Chapter 12
01:25:37.882 : en:Chapter 13
01:31:12.842 : en:Chapter 14
01:38:38.495 : en:Chapter 15



1 个附件 售价 大小 下载 时间

No.Strings.Attached.2011.1080p.BluRay.REMUX.AVC.DTS-HD.MA.5.1-FGT[92btbtt.com].torrent 0 金币 69.79K 777 次 9月前

#1楼
发帖时间:2019-03-01 20:22:46   |   回复数:3
911degrees
隐世仙人♂
非常感谢,谢谢分享
9月前 #2楼
liyouchai
隐世仙人♂
谢谢楼主分享资源
9月前 #3楼
blue23
隐世仙人♂
感谢楼主分享
9月前 #4楼
游客组