aoloffline
版主

[2018] [欧美] [犯罪] [WEB-4K] [BT下载]白人男孩瑞克 White.Boy.Rick.2018.INTERNAL.HDR.2160p.WEB.H265-DEFLATE 11GB

-->

White.Boy.Rick.2018.INTERNAL.HDR.2160p.WEB.H265-DEFLATE


◎译  名 白人男孩瑞克 / 白人男孩里克

◎片  名 White Boy Rick

◎年  代 2018

◎产  地 美国

◎类  别 剧情 / 犯罪

◎语  言 英语

◎上映日期 2018-08-31(特柳赖德电影节) / 2018-09-14(美国)

◎IMDb评分 6.5/10 from 12901 users

◎IMDb链接 http://www.imdb.com/title/tt4537896

◎豆瓣评分 6.2/10 from 550 users

◎豆瓣链接 https://movie.douban.com/subject/26704843/

◎BT之家整理 http://8btbtt.com/ 

◎片  长 111分钟

◎导  演 扬·德芒热 Yann Demange

◎编  剧 安迪·韦斯 Andy Weiss / 罗根·米勒 Logan Miller / 诺亚·米勒 Noah Miller

◎主  演 马修·麦康纳 Matthew McConaughey

      里奇·梅里特 Richie Merritt

      蓓尔·波利 Bel Powley

      詹妮弗·杰森·李 Jennifer Jason Leigh

      布莱恩·泰里·亨利 Brian Tyree Henry

      罗利·科奇瑞恩 Rory Cochrane

      RJ·赛勒 RJ Cyler

      乔纳森·梅杰斯 Jonathan Majors

      埃迪·马森 Eddie Marsan

      泰勒·佩姬 Taylour Paige

      布鲁斯·邓恩 Bruce Dern

      派珀·劳瑞 Piper Laurie

      劳伦斯·阿迪莫拉 Lawrence Adimora

      海蒂·索兹蒙 Heidi Sulzman

      布拉德·卡特 Brad Carter




◎简  介  


  上个世界80年代中期,年仅14岁的小理查德·沃舍成为了一名政府执法部门的线人,后来变成一个主要的毒贩。这样的双面生活,也让他与政府产生了摩擦,当有一天他被发现携有17磅的海洛因,而那时他刚刚17岁。他被投入监狱,并被判处终身监禁,那么问题来了,他沦落如此,当初让他做线人的联邦政府该负多少责任?


Video
ID : 1
Format : HEVC
Format/Info : High Efficiency Video Coding
Commercial name : HDR10
Format profile : Main [email protected]@Main
Codec ID : V_MPEGH/ISO/HEVC
Duration : 1 h 51 min
Bit rate : 13.5 Mb/s
Width : 3 840 pixels
Height : 1 606 pixels
Original height : 2 160 pixels
Display aspect ratio : 16:9
Frame rate mode : Constant
Frame rate : 23.976 (24000/1001) FPS
Color space : YUV
Chroma subsampling : 4:2:0
Bit depth : 10 bits
Bits/(Pixel*Frame) : 0.091
Stream size : 10.5 GiB (94%)
Default : Yes
Forced : No
Color range : Limited
Color primaries : BT.2020
Transfer characteristics : PQ
Matrix coefficients : BT.2020 non-constant
Mastering display color primaries : BT.2020
Mastering display luminance : min: 0.0020 cd/m2, max: 1000 cd/m2
Maximum Content Light Level : 456 cd/m2
Maximum Frame-Average Light Level : 152 cd/m2

Audio
ID : 2
Format : E-AC-3
Format/Info : Enhanced AC-3
Commercial name : Dolby Digital Plus
Codec ID : A_EAC3
Duration : 1 h 51 min
Bit rate mode : Constant
Bit rate : 640 kb/s
Channel(s) : 6 channels
Channel layout : L R C LFE Ls Rs
Sampling rate : 48.0 kHz
Frame rate : 31.250 FPS (1536 SPF)
Compression mode : Lossy
Delay relative to video : 9 ms
Stream size : 509 MiB (4%)
Language : English
Service kind : Complete Main
Default : Yes
Forced : No

Text #1
ID : 3
Format : UTF-8
Codec ID : S_TEXT/UTF8
Codec ID/Info : UTF-8 Plain Text
Title : English
Language : English
Default : No
Forced : No

Text #2
ID : 4
Format : UTF-8
Codec ID : S_TEXT/UTF8
Codec ID/Info : UTF-8 Plain Text
Title : English (SDH)
Language : English
Default : No
Forced : No

Menu
00:00:00.000 : en:Studio Logos
00:01:03.000 : en:Lions don't leave the Serengeti
00:04:24.000 : en:Title Sequence
00:04:30.000 : en:Rick Sr. works to keep his family together
00:08:09.000 : en:White Boy Rick does business around Detroit
00:12:43.000 : en:Time for some roller disco fun
00:14:44.000 : en:Unexpected guests come for Rick Sr.
00:25:09.000 : en:It's wedding time
00:29:16.000 : en:Rick finally makes a move
00:32:01.000 : en:Ricky's situation with the FBI changes
00:33:24.000 : en:Ricky gets into some trouble
00:39:59.000 : en:Ricky gets a warning
00:42:13.000 : en:The boys head to Vegas
00:47:42.000 : en:The retaliation games begin
00:59:10.000 : en:Pretend like this never happened
01:04:23.000 : en:Ricky gets more unexpected news
01:12:05.000 : en:It's time for things to change
01:18:54.000 : en:Ricky is playing a dangerous game
01:27:29.000 : en:Ricky has to make a tough call
01:32:17.000 : en:The jury delivers their verdict
01:33:49.000 : en:Sometimes you have to take what you catch in the net
01:43:34.000 : en:Acknowledgement
01:45:11.000 : en:End Credits



1 个附件 售价 大小 下载 时间

White.Boy.Rick.2018.INTERNAL.HDR.2160p.WEB.H265-DEFLATE[92btbtt.com].torrent 0 金币 56.59K 329 次 5月前

#1楼
发帖时间:2019-03-13 11:44:17   |   回复数:3
911degrees
隐世仙人♂
非常感谢,谢谢分享
5月前 #2楼
liyouchai
隐世仙人♂
谢谢楼主分享资源
5月前 #3楼
blue23
隐世仙人♂
感谢楼主分享
5月前 #4楼
游客组