aoloffline
版主

[更 早] [欧美] [剧情] [BD-Remux] [BT下载]暖暖内含光 2004.1080p.BluRay.REMUX.AVC.DTS-HD.MA.5.1-FGT 29GB

-->

Eternal.Sunshine.of.the.Spotless.Mind.2004.1080p.BluRay.REMUX.AVC.DTS-HD.MA.5.1-FGT


◎译  名 暖暖内含光 / 忘记你我做不到(豆友译名) / 无瑕心灵的永恒阳光 / 无痛失恋(港) / 暧暧内含光 / 灵光乍现 / 王牌冤家(台) / 纯洁心灵的永恒阳光 / 美丽心灵的永恒阳光

◎片  名 Eternal Sunshine of the Spotless Mind

◎年  代 2004

◎产  地 美国

◎类  别 剧情 / 爱情 / 奇幻

◎语  言 英语

◎上映日期 2004-03-19(美国)

◎IMDb评分 8.3/10 from 812843 users

◎IMDb链接 http://www.imdb.com/title/tt0338013

◎豆瓣评分 8.5/10 from 164990 users

◎豆瓣链接 https://movie.douban.com/subject/1308777/

◎BT之家整理 http://8btbtt.com/ 

◎片  长 108分钟

◎导  演 米歇尔·冈瑞 Michel Gondry

◎编  剧 查理·考夫曼 Charlie Kaufman / 米歇尔·冈瑞 Michel Gondry / 皮埃尔·比斯毛特 Pierre Bismuth

◎主  演 金·凯瑞 Jim Carrey

      凯特·温丝莱特 Kate Winslet

      伊利亚·伍德 Elijah Wood

      克斯汀·邓斯特 Kirsten Dunst

      汤姆斯·杰·瑞恩 Thomas Jay Ryan

      马克·鲁弗洛 Mark Ruffalo

      简·亚当斯 Jane Adams

      大卫·克罗斯 David Cross

      汤姆·威尔金森 Tom Wilkinson

      Amir Ali Said

      Brian Price

      Paulie Litt



◎标  签 爱情 | 美国 | 文艺 | 奇幻 | 心理 | 剧情 | 失忆 | 2004


◎简  介  


  内向沉稳的约尔•巴瑞斯(金•凯瑞 饰)在一次聚会中认识了率真随性的克莱门汀•克罗斯基(凯特•温丝莱特 饰),二人成为情侣。和普通的情侣一样,他们的日子也在甜蜜和争吵中度过。

2004年情人节前夕,当约尔精心准备好礼物,为不久前一次争吵找到克莱门汀道歉时,他惊讶地发现,克莱门汀根本都不记得他了。原来冲动的克莱门汀受不了二人交往中争吵的痛苦,到“忘情诊所”,把关于约尔的记忆删除得一干二净。

约尔无法原谅克莱门汀的任性,也无法忍受失去她的痛苦,所以他也到了“忘情诊所”,请求医生霍华德博士(汤姆•维尔金森 饰)消除关于克莱门汀的记忆。

记忆清除程序开始启动,约尔在自己的记忆中游走,他发现和克莱斯汀一起度过的那些时光,无论是痛苦还是甜蜜,都弥足珍贵,他并不想忘记这个自己深爱的女人。但是,程序一旦启动就无法逆转,约尔只能想尽办法把克莱斯汀藏到记忆最深的地方,那些现实中克莱斯汀本来没有出现过的时间角落,以保存这份爱情……


◎获奖情况  


  第77届奥斯卡金像奖(2005)

  最佳女主角(提名) 凯特·温丝莱特

  最佳原创剧本 查理·考夫曼 / 米歇尔·贡德里 / 皮埃尔·比斯毛特


  第62届金球奖(2005)

  电影类 最佳音乐/喜剧片(提名)

  电影类 音乐/喜剧片最佳男主角(提名) 金·凯瑞

  电影类 音乐/喜剧片最佳女主角(提名) 凯特·温丝莱特

  电影类 最佳编剧(提名) 查理·考夫曼


  第58届英国电影学院奖(2005)

  电影奖 最佳影片(提名) 史蒂夫·戈林 / 安东尼·贝格曼

  电影奖 最佳导演(提名) 米歇尔·贡德里

  电影奖 最佳男主角(提名) 金·凯瑞

  电影奖 最佳女主角(提名) 凯特·温丝莱特

  电影奖 最佳原创剧本 查理·考夫曼

  电影奖 最佳剪辑 Valdís Óskarsdóttir


  第5届美国电影学会奖(2004)

  年度佳片


Video
ID : 1
Format : AVC
Format/Info : Advanced Video Codec
Format profile : [email protected]
Format settings : CABAC / 4 Ref Frames
Format settings, CABAC : Yes
Format settings, ReFrames : 4 frames
Codec ID : V_MPEG4/ISO/AVC
Duration : 1 h 47 min
Bit rate mode : Variable
Bit rate : 32.8 Mb/s
Maximum bit rate : 35.0 Mb/s
Width : 1 920 pixels
Height : 1 080 pixels
Display aspect ratio : 16:9
Frame rate mode : Constant
Frame rate : 23.976 (24000/1001) FPS
Color space : YUV
Chroma subsampling : 4:2:0
Bit depth : 8 bits
Scan type : Progressive
Bits/(Pixel*Frame) : 0.660
Stream size : 24.7 GiB (84%)
Title : Eternal.Sunshine.of.the.Spotless.Mind.2004.1080p.BluRay.REMUX.AVC.DTS-HD.MA.5.1-FGT
Language : English
Default : No
Forced : No
Color range : Limited
Color primaries : BT.709
Transfer characteristics : BT.709
Matrix coefficients : BT.709

Audio #1
ID : 2
Format : DTS XLL
Format/Info : Digital Theater Systems
Commercial name : DTS-HD Master Audio
Codec ID : A_DTS
Duration : 1 h 47 min
Bit rate mode : Variable
Bit rate : 3 703 kb/s
Channel(s) : 6 channels
Channel layout : C L R Ls Rs LFE
Sampling rate : 48.0 kHz
Frame rate : 93.750 FPS (512 SPF)
Bit depth : 24 bits
Compression mode : Lossless
Stream size : 2.79 GiB (9%)
Title : Eternal.Sunshine.of.the.Spotless.Mind.2004.1080p.BluRay.REMUX.AVC.DTS-HD.MA.5.1-FGT
Language : English
Default : Yes
Forced : No

Audio #2
ID : 3
Format : DTS
Format/Info : Digital Theater Systems
Codec ID : A_DTS
Duration : 1 h 47 min
Bit rate mode : Constant
Bit rate : 1 509 kb/s
Channel(s) : 6 channels
Channel layout : C L R Ls Rs LFE
Sampling rate : 48.0 kHz
Frame rate : 93.750 FPS (512 SPF)
Bit depth : 24 bits
Compression mode : Lossy
Stream size : 1.14 GiB (4%)
Title : Eternal.Sunshine.of.the.Spotless.Mind.2004.1080p.BluRay.REMUX.AVC.DTS-HD.MA.5.1-FGT
Language : English
Default : No
Forced : No

Audio #3
ID : 4
Format : DTS
Format/Info : Digital Theater Systems
Codec ID : A_DTS
Duration : 1 h 47 min
Bit rate mode : Constant
Bit rate : 768 kb/s
Channel(s) : 6 channels
Channel layout : C L R Ls Rs LFE
Sampling rate : 48.0 kHz
Frame rate : 93.750 FPS (512 SPF)
Bit depth : 24 bits
Compression mode : Lossy
Stream size : 592 MiB (2%)
Title : Eternal.Sunshine.of.the.Spotless.Mind.2004.1080p.BluRay.REMUX.AVC.DTS-HD.MA.5.1-FGT
Language : French
Default : No
Forced : No

Audio #4
ID : 5
Format : AC-3
Format/Info : Audio Coding 3
Commercial name : Dolby Digital
Codec ID : A_AC3
Duration : 1 h 47 min
Bit rate mode : Constant
Bit rate : 192 kb/s
Channel(s) : 2 channels
Channel layout : L R
Sampling rate : 48.0 kHz
Frame rate : 31.250 FPS (1536 SPF)
Bit depth : 16 bits
Compression mode : Lossy
Stream size : 148 MiB (0%)
Title : Eternal.Sunshine.of.the.Spotless.Mind.2004.1080p.BluRay.REMUX.AVC.DTS-HD.MA.5.1-FGT
Language : English
Service kind : Complete Main
Default : No
Forced : No

Text #1
ID : 6
Format : PGS
Muxing mode : zlib
Codec ID : S_HDMV/PGS
Codec ID/Info : Picture based subtitle format used on BDs/HD-DVDs
Duration : 1 h 43 min
Bit rate : 40.9 kb/s
Count of elements : 2990
Stream size : 30.2 MiB (0%)
Title : English-PGS
Language : English
Default : Yes
Forced : No

Text #2
ID : 7
Format : PGS
Muxing mode : zlib
Codec ID : S_HDMV/PGS
Codec ID/Info : Picture based subtitle format used on BDs/HD-DVDs
Duration : 1 h 41 min
Bit rate : 40.4 kb/s
Count of elements : 2588
Stream size : 29.4 MiB (0%)
Title : French-PGS
Language : French
Default : No
Forced : No

Text #3
ID : 8
Format : PGS
Muxing mode : zlib
Codec ID : S_HDMV/PGS
Codec ID/Info : Picture based subtitle format used on BDs/HD-DVDs
Duration : 23 min 34 s
Bit rate : 596 b/s
Count of elements : 10
Stream size : 103 KiB (0%)
Title : French-FORCED-PGS
Language : French
Default : No
Forced : No

Menu
00:00:00.000 : en:Chapter 01
00:03:43.723 : en:Chapter 02
00:10:31.756 : en:Chapter 03
00:13:25.846 : en:Chapter 04
00:17:38.640 : en:Chapter 05
00:19:35.841 : en:Chapter 06
00:25:12.302 : en:Chapter 07
00:28:01.304 : en:Chapter 08
00:35:09.065 : en:Chapter 09
00:43:07.084 : en:Chapter 10
00:49:29.591 : en:Chapter 11
00:52:14.214 : en:Chapter 12
00:59:24.978 : en:Chapter 13
01:02:53.728 : en:Chapter 14
01:15:50.921 : en:Chapter 15
01:21:28.800 : en:Chapter 16
01:24:23.183 : en:Chapter 17
01:31:45.666 : en:Chapter 18
01:35:52.663 : en:Chapter 19
01:44:06.281 : en:Chapter 20



1 个附件 售价 大小 下载 时间

Eternal.Sunshine.of.the.Spotless.Mind.2004.1080p.BluRay.REMUX.AVC.DTS-HD.MA.5.1-FGT[92btbtt.com].torrent 0 金币 74.06K 1505 次 4月前

#1楼
发帖时间:2019-03-13 17:47:45   |   回复数:2
911degrees
隐世仙人♂
非常感谢,谢谢分享
4月前 #2楼
liyouchai
隐世仙人♂
谢谢楼主分享资源
4月前 #3楼
游客组