来自猩猩的你4444
武林高手

[2018] [大陆] [喜剧] [BD-1080P] [BT下载]西虹市首富.Hello.Mr.Billionaire.2018.BluRay.1080p.DD5.1.x264-CHD 10GB

-->


◎译  名 Hello Mr. Billionaire

◎片  名 西虹市首富

◎年  代 2018

◎产  地 中国大陆

◎类  别 喜剧

◎语  言 汉语普通话

◎上映日期 2018-07-27(中国大陆)

◎IMDb评分  6.2/10 from 900 users

◎IMDb链接  https://www.imdb.com/title/tt8529186/

◎豆瓣评分 6.6/10 from 620,728 users

◎豆瓣链接 https://douban.com/subject/27605698/

◎片  长 118分钟

◎导  演 闫非 Fei Yan / 彭大魔 Damo Peng

◎编  剧 闫非 Fei Yan / 彭大魔 Damo Peng / 林炳宝 Bingbao Lin

◎主  演 沈腾 Teng Shen

       宋芸桦 Vivian Sung

       张一鸣 Yiming Zhang

       张晨光 Morning Chang

       常远 Yuan Chang

       魏翔 Xiang Wei

       赵自强 Tzu-chiang Chao

       九孔 Kong Jiu

       李立群 Lichun Lee

       王成思 Chengsi Wang

       徐冬冬 Dongdong Xu

       艾伦 Allen

       杨皓宇 Haoyu Yang

       黄才伦 Cailun Huang

       王力宏 Lee-Hom Wang

       包贝尔 Bei'er Bao

       郎咸平 Larry Hsien Ping Lang

       张绍刚 Shaogang Zhang

       杨文哲 Wenzhe Yang

       陶亮 Liang Tao

       王赞 Zan Wang

       黄杨 Yang Huang

       刘鉴 Jian Liu

       杨沅翰 Yuanhan Yang

       林炳宝 Bingbao Lin

       骆佳 Jia Luo

       陈昊明 Haoming Chen

       臧一人 Yiren Zang


◎标  签 喜剧 | 开心麻花 | 搞笑 | 2018 | 黑色幽默 | 讽刺 | 中国大陆 | 人性


◎简  介


  西虹市丙级球队大翔队的守门员王多鱼(沈腾 饰)因比赛失利被教练开除,一筹莫展之际王多鱼突然收到神秘人士金老板(张晨光 饰)的邀请,被告知自己竟然是保险大亨王老太爷(李立群 饰)的唯一继承人,遗产高达百亿!但是王老太爷给出了一个非常奇葩的条件,那就是要求王多鱼在一个月内花光十亿,还不能告诉身边人,否则失去继承权。王多鱼毫不犹豫签下了“军令状”,与好友庄强(张一鸣 饰)以及财务夏竹(宋芸桦 饰)一起开启了“挥金之旅”,即将成为西虹市首富的王多鱼,第一次感受到了做富人的快乐,同时也发现想要挥金如土实在没有那么简单!


General

Unique ID                      : 174609934000299275850688240914957234124 (0x835CA669897349FB4FD67961B2D26FCC)

Complete name                  : D:\下载\Hello.Mr.Billionaire.2018.BluRay.1080p.DD5.1.x264-CHD\Hello.Mr.Billionaire.2018.BluRay.1080p.DD5.1.x264-CHD.mkv

Format                         : Matroska

Format version                 : Version 4

File size                      : 10.00 GiB

Duration                       : 1 h 58 min 07 s

Overall bit rate               : 12.1 Mb/s

Encoded date                   : UTC 2019-04-13 04:40:12

Writing application            : mkvmerge v33.0.0 ('A Little Bit of Madness') 64-bit

Writing library                : libebml v1.3.7 + libmatroska v1.5.0


Video

ID                             : 1

Format                         : AVC

Format/Info                    : Advanced Video Codec

Format profile                 : [email protected]

Format settings                : CABAC / 4 Ref Frames

Format settings, CABAC         : Yes

Format settings, ReFrames      : 4 frames

Codec ID                       : V_MPEG4/ISO/AVC

Duration                       : 1 h 58 min 07s

Bit rate                       : 11.4 Mb/s

Width                          : 1 920 pixels

Height                         : 754 pixels

Display aspect ratio           : 2.546

Frame rate mode                : Constant

Frame rate                     : 24.000 FPS

Color space                    : YUV

Chroma subsampling             : 4:2:0

Bit depth                      : 8 bits

Scan type                      : Progressive

Bits/(Pixel*Frame)             : 0.329

Stream size                    : 9.43 GiB (94%)

Writing library                : x264 core 157 r2867+150 7e91e0e t_mod_Custom_2 [[email protected] X86_64]

Encoding settings              : cabac=1 / ref=4 / deblock=1:-3:-3 / analyse=0x3:0x133 / me=umh / subme=10 / psy=1 / fade_compensate=0.00 / psy_rd=0.95:0.10 / mixed_ref=1 / me_range=48 / chroma_me=1 / trellis=2 / 8x8dct=1 / cqm=0 / deadzone=21,11 / fast_pskip=0 / chroma_qp_offset=-4 / threads=18 / lookahead_threads=3 / sliced_threads=0 / nr=0 / decimate=1 / interlaced=0 / bluray_compat=0 / constrained_intra=0 / fgo=0 / bframes=8 / b_pyramid=2 / b_adapt=2 / b_bias=0 / direct=3 / weightb=1 / open_gop=0 / weightp=2 / keyint=250 / keyint_min=24 / scenecut=40 / intra_refresh=0 / rc_lookahead=60 / rc=crf / mbtree=0 / crf=19.0000 / qcomp=0.70 / qpmin=0:0:0 / qpmax=69:69:69 / qpstep=4 / vbv_maxrate=35000 / vbv_bufsize=35000 / crf_max=0.0 / nal_hrd=none / filler=0 / ip_ratio=1.40 / pb_ratio=1.30 / aq=3:1.00 / aq-sensitivity=10.00 / aq-factor=1.00:1.00:1.00 / aq2=0 / aq3=2:[0.50:0.50]:[0.50:0.50]:[0.50:0.50]:[0.50:0.50] / aq3-sensitivity=10.00 / aq3-factor=[1.00:1.00]:[1.00:1.00]:[1.00:1.00] / aq3-boundary=192:64:24

Language                       : English

Default                        : Yes

Forced                         : No


Audio

ID                             : 2

Format                         : AC-3

Format/Info                    : Audio Coding 3

Commercial name                : Dolby Digital

Codec ID                       : A_AC3

Duration                       : 1 h 58 min

Bit rate mode                  : Constant

Bit rate                       : 640 kb/s

Channel(s)                     : 6 channels

Channel layout                 : L R C LFE Ls Rs

Sampling rate                  : 48.0 kHz

Frame rate                     : 31.250 FPS (1536 SPF)

Bit depth                      : 16 bits

Compression mode               : Lossy

Stream size                    : 541 MiB (5%)

Language                       : English

Service kind                   : Complete Main

Default                        : Yes

Forced                         : No


Text #1

ID                             : 3

Format                         : PGS

Muxing mode                    : zlib

Codec ID                       : S_HDMV/PGS

Codec ID/Info                  : Picture based subtitle format used on BDs/HD-DVDs

Duration                       : 1 h 56 min

Bit rate                       : 41.6 kb/s

Count of elements              : 3584

Stream size                    : 34.6 MiB (0%)

Language                       : Chinese

Default                        : Yes

Forced                         : No


Text #2

ID                             : 4

Format                         : PGS

Muxing mode                    : zlib

Codec ID                       : S_HDMV/PGS

Codec ID/Info                  : Picture based subtitle format used on BDs/HD-DVDs

Duration                       : 1 h 56 min

Bit rate                       : 42.4 kb/s

Count of elements              : 3584

Stream size                    : 35.3 MiB (0%)

Language                       : Chinese

Default                        : No

Forced                         : No


Text #3

ID                             : 5

Format                         : PGS

Muxing mode                    : zlib

Codec ID                       : S_HDMV/PGS

Codec ID/Info                  : Picture based subtitle format used on BDs/HD-DVDs

Duration                       : 1 h 56 min

Bit rate                       : 53.4 kb/s

Count of elements              : 3584

Stream size                    : 44.4 MiB (0%)

Language                       : English

Default                        : No

Forced                         : No


请下载完的朋友做种。因为时间有限 本人出种后会关机




1 个附件 售价 大小 下载 时间

Hello.Mr.Billionaire.2018.BluRay.1080p.DD5.1.x264-CHD.torrent 0 金币 101.63K 3717 次 6天前

#1楼
发帖时间:2019-04-14 00:11:12   |   回复数:4
blue23
隐世仙人♂
感谢楼主分享
6天前 #2楼
ysh28208
小有名气
感谢分享
5天前 #3楼
liyouchai
超凡入圣№
谢谢楼主分享资源
5天前 #4楼
911degrees
隐世仙人♂
非常感谢,谢谢分享
4天前 #5楼
游客组