conanlcg
超级版主

[2011] [欧美] [惊悚] [BD-1080P] 致命毒液 Venom.2011.1080p.BluRay.x264-RUSTED 5.46GB

-->




◎译  名 致命毒液
◎片  名 Venom
◎年  代 2011
◎产  地 美国
◎类  别 惊悚 / 犯罪
◎语  言 英语
◎上映日期 2011-07-15
◎IMDb评分 3.0/10 from 160 users
◎IMDb链接 http://www.imdb.com/title/tt1931601
◎豆瓣评分 0/10 from 0 users
◎豆瓣链接 https://movie.douban.com/subject/25790873/
◎片  长 80分钟
◎导  演 Gary Breslin
◎编  剧 Joan Canning Boris
◎主  演 Jessica Morris
      Oliviah Crawford
      Roberto 'Sanz' Sanchez
      Israel Sáez de Miguel


◎标  签 惊悚 | 奏鸣曲

◎简  介

  《致命毒液》讲述了一对母女在旅途中碾死了一只毒蛇,此后遭到蛇群的报复,以及遇到不怀好意的男人。

Video
ID : 1
Format : AVC
Format/Info : Advanced Video Codec
Format profile : [email protected]
Format settings : CABAC / 4 Ref Frames
Format settings, CABAC : Yes
Format settings, ReFrames : 4 frames
Codec ID : V_MPEG4/ISO/AVC
Duration : 1 h 20 min
Bit rate : 8 906 kb/s
Width : 1 920 pixels
Height : 1 080 pixels
Display aspect ratio : 16:9
Frame rate mode : Constant
Frame rate : 24.000 FPS
Color space : YUV
Chroma subsampling : 4:2:0
Bit depth : 8 bits
Scan type : Progressive
Bits/(Pixel*Frame) : 0.179
Stream size : 4.92 GiB (90%)
Writing library : x264 core 140 r2377 1ca7bb9
Encoding settings : cabac=1 / ref=4 / deblock=1:0:0 / analyse=0x3:0x133 / me=umh / subme=7 / psy=1 / psy_rd=1.00:0.00 / mixed_ref=1 / me_range=16 / chroma_me=1 / trellis=1 / 8x8dct=1 / cqm=0 / deadzone=21,11 / fast_pskip=0 / chroma_qp_offset=-2 / threads=18 / lookahead_threads=3 / sliced_threads=0 / nr=0 / decimate=1 / interlaced=fake / bluray_compat=0 / constrained_intra=0 / bframes=3 / b_pyramid=2 / b_adapt=1 / b_bias=0 / direct=1 / weightb=1 / open_gop=0 / weightp=2 / keyint=240 / keyint_min=24 / scenecut=40 / intra_refresh=0 / rc_lookahead=40 / rc=2pass / mbtree=1 / bitrate=8906 / ratetol=1.0 / qcomp=0.60 / qpmin=10 / qpmax=69 / qpstep=4 / cplxblur=20.0 / qblur=0.5 / ip_ratio=1.40 / aq=1:1.00
Language : English
Default : Yes
Forced : No

Audio
ID : 2
Format : DTS
Format/Info : Digital Theater Systems
Codec ID : A_DTS
Duration : 1 h 20 min
Bit rate mode : Constant
Bit rate : 768 kb/s
Channel(s) : 6 channels
Channel layout : C L R Ls Rs LFE
Sampling rate : 48.0 kHz
Frame rate : 93.750 FPS (512 SPF)
Bit depth : 16 bits
Compression mode : Lossy
Stream size : 444 MiB (8%)
Language : English
Default : Yes
Forced : No

Menu
00:00:00.000 : en:00:00:00.000
00:03:35.000 : en:00:03:35.000
00:09:11.000 : en:00:09:11.000
00:14:44.625 : en:00:14:44.625
00:22:20.000 : en:00:22:20.000
00:29:56.000 : en:00:29:56.000
00:37:05.000 : en:00:37:05.000
00:43:36.000 : en:00:43:36.000
00:50:04.000 : en:00:50:04.000
00:59:11.000 : en:00:59:11.000
01:06:49.416 : en:01:06:49.416
01:15:42.000 : en:01:15:42.000
01:20:47.458 : en:01:20:47.458





1 个附件 售价 大小 下载 时间

Venom.2011.1080p.BluRay.x264-RUSTED.torrent 0 金币 27.80K 1288 次 6月前

#1楼
发帖时间:2019-05-22 10:41:50   |   回复数:2
911degrees
隐世仙人♂
非常感谢,谢谢分享
6月前 #2楼
liyouchai
隐世仙人♂
谢谢楼主分享资源
6月前 #3楼
游客组