conanlcg
超级版主

[2011] [其他] [剧情] [4K-原盘] 权力的游戏 第一季 Game.of.Thrones.S01.2160p.BluRay.REMUX.HEVC.DTS-HD.MA.TrueHD.7.1.Atmos

-->

帖子完整标题:权力的游戏 第一季 Game.of.Thrones.S01.2160p.BluRay.REMUX.HEVC.DTS-HD.MA.TrueHD.7.1.Atmos-FGT 295.96GB




◎译  名 权力的游戏 第一季 / A Song of Ice and Fire: Game of Thrones Season 1 / 冰与火之歌:权力的游戏 第一季 / 王座游戏 第一季
◎片  名 Game of Thrones Season 1
◎年  代 2011
◎产  地 美国 / 英国
◎类  别 剧情 / 奇幻 / 冒险
◎语  言 英语 / 多斯拉克语
◎上映日期 2011-04-17(美国)
◎IMDb评分 9.5/10 from 1508232 users
◎IMDb链接 http://www.imdb.com/title/tt0944947
◎豆瓣评分 9.4/10 from 247468 users
◎豆瓣链接 https://movie.douban.com/subject/3016187/
◎集  数 10
◎片  长 60分钟
◎导  演 蒂莫西·范·帕腾 Timothy Van Patten / 布莱恩·柯克 Brian Kirk / 丹尼尔·米纳汉 Daniel Minahan / 阿兰·泰勒 Alan Taylor
◎编  剧 戴维·贝尼奥夫 David Benioff / D·B·威斯 D.B. Weiss / George R.R. Martin (novel)
◎主  演 伊萨克·亨普斯特德-怀特 Isaac Hempstead-Wright
      查里斯·丹斯 Charles Dance
      John C. Bradley
      罗恩·多纳基 Ron Donachie
      伊恩·麦克尔希尼 Ian McElhinney
      肖恩·宾 Sean Bean
      米歇尔·费尔利 Michelle Fairley
      艾米莉亚·克拉克 Emilia Clarke
      伊恩·格雷 Iain Glen
      基特·哈灵顿 Kit Harington
      尼可拉·科斯特-瓦尔道 Nikolaj Coster-Waldau


◎标  签 美剧 | 史诗 | 奇幻 | HBO | 魔幻 | 美国 | 电视剧 | 2011

◎简  介

  《权力的游戏》是一部中世纪史诗奇幻题材的电视连续剧,该剧以美国作家乔治·R·R·马丁的奇幻巨作《冰与火之歌》七部曲为基础改编创作。
故事背景中虚构的世界,分为两片大陆:位于西面的“日落国度”维斯特洛;位于东面的类似亚欧大陆。维斯特洛大陆边境处发现远古传说中早已灭绝的生物开始,危险也渐渐在靠近这里。这片大陆的临冬城主暨北境统领艾德史塔克家族也迎来了老友兼国王劳勃·拜拉席恩的来访。国王希望艾德·史塔克(肖恩·宾 Sean Bean 饰)能担任首相一职,对抗企图夺取铁王座的叛军。危情一触即发,整个王国看似平和的表面下却是波涛暗涌。权高位重的拜拉席恩家族、勇敢善良的史塔克家族、企图谋取王位的坦格利安家族、有着不可告人秘密的兰尼斯特家族。这些家族各怀鬼胎,这个国家将会陷入一场混战.....

◎获奖情况

  第69届金球奖(2012)
  电视类 最佳剧情类剧集(提名)
  电视类 最佳男配角 彼特·丁拉基

  第12届美国视觉效果协会奖(2014)
  最佳广告/广播节目CG背景(提名) Patrick Zentis / Mayur Patel

  第12届美国电影学会奖(2011)
  年度佳剧



Video #1
ID : 1
Format : HEVC
Format/Info : High Efficiency Video Coding
Commercial name : HDR10
Format profile : Main [email protected]@High
Codec ID : V_MPEGH/ISO/HEVC
Duration : 1 h 1 min
Bit rate : 51.7 Mb/s
Width : 3 840 pixels
Height : 2 160 pixels
Display aspect ratio : 16:9
Frame rate mode : Constant
Frame rate : 23.976 (24000/1001) FPS
Color space : YUV
Chroma subsampling : 4:2:0 (Type 2)
Bit depth : 10 bits
Bits/(Pixel*Frame) : 0.260
Stream size : 22.3 GiB (72%)
Title : Game.of.Thrones.S01E01.2160p.BluRay.REMUX.HEVC.DTS-HD.MA.TrueHD.7.1.Atmos-FGT
Default : Yes
Forced : No
Color range : Limited
Color primaries : BT.2020
Transfer characteristics : PQ
Matrix coefficients : BT.2020 non-constant
Mastering display color primaries : BT.2020
Mastering display luminance : min: 0.0020 cd/m2, max: 1000 cd/m2

Video #2
ID : 2
Format : HEVC
Format/Info : High Efficiency Video Coding
Commercial name : HDR10
Format profile : Main [email protected]@High
Codec ID : V_MPEGH/ISO/HEVC
Duration : 1 h 1 min
Bit rate : 3 337 kb/s
Width : 1 920 pixels
Height : 1 080 pixels
Display aspect ratio : 16:9
Frame rate mode : Constant
Frame rate : 23.976 (24000/1001) FPS
Color space : YUV
Chroma subsampling : 4:2:0 (Type 2)
Bit depth : 10 bits
Bits/(Pixel*Frame) : 0.067
Stream size : 1.44 GiB (5%)
Title : Game.of.Thrones.S01E01.2160p.BluRay.REMUX.HEVC.DTS-HD.MA.TrueHD.7.1.Atmos-FGT
Default : No
Forced : No
Color range : Limited
Color primaries : BT.2020
Transfer characteristics : PQ
Matrix coefficients : BT.2020 non-constant
Mastering display color primaries : BT.2020
Mastering display luminance : min: 0.0020 cd/m2, max: 1000 cd/m2

Audio #1
ID : 3
Format : TrueHD
Format profile : TrueHD+Atmos / TrueHD
Codec ID : A_TRUEHD
Duration : 1 h 1 min
Bit rate mode : Variable
Bit rate : 5 056 kb/s
Maximum bit rate : 7 887 kb/s
Channel(s) : Object Based / 8 channels
Channel positions : Object Based / Front: L C R, Side: L R, Back: L R, LFE
Sampling rate : / 48.0 kHz
Frame rate : 1 200.000 FPS (40 SPF)
Compression mode : Lossless
Stream size : 2.18 GiB (7%)
Title : Game.of.Thrones.S01E01.2160p.BluRay.REMUX.HEVC.DTS-HD.MA.TrueHD.7.1.Atmos-FGT
Language : English
Default : Yes
Forced : No

Audio #2
ID : 4
Format : DTS
Format/Info : Digital Theater Systems
Format profile : MA / Core
Codec ID : A_DTS
Duration : 1 h 1 min
Bit rate mode : Variable / Constant
Bit rate : 4 109 kb/s / 1 509 kb/s
Channel(s) : 8 channels / 6 channels
Channel positions : Front: L C R, Side: L R, Back: L R, LFE / Front: L C R, Side: L R, LFE
Sampling rate : 48.0 kHz
Frame rate : 93.750 FPS (512 SPF)
Bit depth : 24 bits
Compression mode : Lossless / Lossy
Stream size : 1.77 GiB (6%)
Title : Game.of.Thrones.S01E01.2160p.BluRay.REMUX.HEVC.DTS-HD.MA.TrueHD.7.1.Atmos-FGT
Default : No
Forced : No

Audio #3
ID : 5
Format : AC-3
Format/Info : Audio Coding 3
Codec ID : A_AC3
Duration : 1 h 1 min
Bit rate mode : Constant
Bit rate : 640 kb/s
Channel(s) : 6 channels
Channel positions : Front: L C R, Side: L R, LFE
Sampling rate : 48.0 kHz
Frame rate : 31.250 FPS (1536 SPF)
Bit depth : 16 bits
Compression mode : Lossy
Stream size : 282 MiB (1%)
Title : Game.of.Thrones.S01E01.2160p.BluRay.REMUX.HEVC.DTS-HD.MA.TrueHD.7.1.Atmos-FGT
Language : English
Service kind : Complete Main
Default : No
Forced : No

Audio #4
ID : 6
Format : AC-3
Format/Info : Audio Coding 3
Codec ID : A_AC3
Duration : 1 h 1 min
Bit rate mode : Constant
Bit rate : 640 kb/s
Channel(s) : 6 channels
Channel positions : Front: L C R, Side: L R, LFE
Sampling rate : 48.0 kHz
Frame rate : 31.250 FPS (1536 SPF)
Bit depth : 16 bits
Compression mode : Lossy
Stream size : 282 MiB (1%)
Title : Game.of.Thrones.S01E01.2160p.BluRay.REMUX.HEVC.DTS-HD.MA.TrueHD.7.1.Atmos-FGT
Language : English
Service kind : Complete Main
Default : No
Forced : No

Audio #5
ID : 7
Format : AC-3
Format/Info : Audio Coding 3
Codec ID : A_AC3
Duration : 1 h 1 min
Bit rate mode : Constant
Bit rate : 448 kb/s
Channel(s) : 6 channels
Channel positions : Front: L C R, Side: L R, LFE
Sampling rate : 48.0 kHz
Frame rate : 31.250 FPS (1536 SPF)
Bit depth : 16 bits
Compression mode : Lossy
Stream size : 198 MiB (1%)
Title : Game.of.Thrones.S01E01.2160p.BluRay.REMUX.HEVC.DTS-HD.MA.TrueHD.7.1.Atmos-FGT
Language : French
Service kind : Complete Main
Default : No
Forced : No

Audio #6
ID : 8
Format : AC-3
Format/Info : Audio Coding 3
Codec ID : A_AC3
Duration : 1 h 1 min
Bit rate mode : Constant
Bit rate : 256 kb/s
Channel(s) : 2 channels
Channel positions : Front: L R
Sampling rate : 48.0 kHz
Frame rate : 31.250 FPS (1536 SPF)
Bit depth : 16 bits
Compression mode : Lossy
Stream size : 113 MiB (0%)
Title : Game.of.Thrones.S01E01.2160p.BluRay.REMUX.HEVC.DTS-HD.MA.TrueHD.7.1.Atmos-FGT
Language : Spanish
Service kind : Complete Main
Default : No
Forced : No

Audio #7
ID : 9
Format : AC-3
Format/Info : Audio Coding 3
Codec ID : A_AC3
Duration : 1 h 1 min
Bit rate mode : Constant
Bit rate : 448 kb/s
Channel(s) : 6 channels
Channel positions : Front: L C R, Side: L R, LFE
Sampling rate : 48.0 kHz
Frame rate : 31.250 FPS (1536 SPF)
Bit depth : 16 bits
Compression mode : Lossy
Stream size : 198 MiB (1%)
Title : Game.of.Thrones.S01E01.2160p.BluRay.REMUX.HEVC.DTS-HD.MA.TrueHD.7.1.Atmos-FGT
Language : Spanish
Service kind : Complete Main
Default : No
Forced : No

Audio #8
ID : 10
Format : AC-3
Format/Info : Audio Coding 3
Codec ID : A_AC3
Duration : 1 h 1 min
Bit rate mode : Constant
Bit rate : 448 kb/s
Channel(s) : 6 channels
Channel positions : Front: L C R, Side: L R, LFE
Sampling rate : 48.0 kHz
Frame rate : 31.250 FPS (1536 SPF)
Bit depth : 16 bits
Compression mode : Lossy
Stream size : 198 MiB (1%)
Title : Game.of.Thrones.S01E01.2160p.BluRay.REMUX.HEVC.DTS-HD.MA.TrueHD.7.1.Atmos-FGT
Language : German
Service kind : Complete Main
Default : No
Forced : No

Audio #9
ID : 11
Format : AC-3
Format/Info : Audio Coding 3
Codec ID : A_AC3
Duration : 1 h 1 min
Bit rate mode : Constant
Bit rate : 448 kb/s
Channel(s) : 6 channels
Channel positions : Front: L C R, Side: L R, LFE
Sampling rate : 48.0 kHz
Frame rate : 31.250 FPS (1536 SPF)
Bit depth : 16 bits
Compression mode : Lossy
Stream size : 198 MiB (1%)
Title : Game.of.Thrones.S01E01.2160p.BluRay.REMUX.HEVC.DTS-HD.MA.TrueHD.7.1.Atmos-FGT
Language : Italian
Service kind : Complete Main
Default : No
Forced : No

Audio #10
ID : 12
Format : DTS
Format/Info : Digital Theater Systems
Codec ID : A_DTS
Duration : 1 h 1 min
Bit rate mode : Constant
Bit rate : 768 kb/s
Channel(s) : 2 channels
Channel positions : Front: L R
Sampling rate : 48.0 kHz
Frame rate : 93.750 FPS (512 SPF)
Bit depth : 24 bits
Compression mode : Lossy
Stream size : 339 MiB (1%)
Title : Game.of.Thrones.S01E01.2160p.BluRay.REMUX.HEVC.DTS-HD.MA.TrueHD.7.1.Atmos-FGT
Language : Portuguese
Default : No
Forced : No

Audio #11
ID : 13
Format : DTS
Format/Info : Digital Theater Systems
Codec ID : A_DTS
Duration : 1 h 1 min
Bit rate mode : Constant
Bit rate : 768 kb/s
Channel(s) : 2 channels
Channel positions : Front: L R
Sampling rate : 48.0 kHz
Frame rate : 93.750 FPS (512 SPF)
Bit depth : 24 bits
Compression mode : Lossy
Stream size : 339 MiB (1%)
Title : Game.of.Thrones.S01E01.2160p.BluRay.REMUX.HEVC.DTS-HD.MA.TrueHD.7.1.Atmos-FGT
Language : Czech
Default : No
Forced : No

Audio #12
ID : 14
Format : DTS
Format/Info : Digital Theater Systems
Codec ID : A_DTS
Duration : 1 h 1 min
Bit rate mode : Constant
Bit rate : 768 kb/s
Channel(s) : 2 channels
Channel positions : Front: L R
Sampling rate : 48.0 kHz
Frame rate : 93.750 FPS (512 SPF)
Bit depth : 24 bits
Compression mode : Lossy
Stream size : 339 MiB (1%)
Title : Game.of.Thrones.S01E01.2160p.BluRay.REMUX.HEVC.DTS-HD.MA.TrueHD.7.1.Atmos-FGT
Language : Hungarian
Default : No
Forced : No

Audio #13
ID : 15
Format : DTS
Format/Info : Digital Theater Systems
Codec ID : A_DTS
Duration : 1 h 1 min
Bit rate mode : Constant
Bit rate : 768 kb/s
Channel(s) : 2 channels
Channel positions : Front: L R
Sampling rate : 48.0 kHz
Frame rate : 93.750 FPS (512 SPF)
Bit depth : 24 bits
Compression mode : Lossy
Stream size : 339 MiB (1%)
Title : Game.of.Thrones.S01E01.2160p.BluRay.REMUX.HEVC.DTS-HD.MA.TrueHD.7.1.Atmos-FGT
Language : Polish
Default : No
Forced : No

Audio #14
ID : 16
Format : DTS
Format/Info : Digital Theater Systems
Codec ID : A_DTS
Duration : 1 h 1 min
Bit rate mode : Constant
Bit rate : 768 kb/s
Channel(s) : 6 channels
Channel positions : Front: L C R, Side: L R, LFE
Sampling rate : 48.0 kHz
Frame rate : 93.750 FPS (512 SPF)
Bit depth : 24 bits
Compression mode : Lossy
Stream size : 339 MiB (1%)
Title : Game.of.Thrones.S01E01.2160p.BluRay.REMUX.HEVC.DTS-HD.MA.TrueHD.7.1.Atmos-FGT
Language : Russian
Default : No
Forced : No

Audio #15
ID : 17
Format : AC-3
Format/Info : Audio Coding 3
Codec ID : A_AC3
Duration : 1 h 1 min
Bit rate mode : Constant
Bit rate : 448 kb/s
Channel(s) : 6 channels
Channel positions : Front: L C R, Side: L R, LFE
Sampling rate : 48.0 kHz
Frame rate : 31.250 FPS (1536 SPF)
Bit depth : 16 bits
Compression mode : Lossy
Stream size : 198 MiB (1%)
Title : Game.of.Thrones.S01E01.2160p.BluRay.REMUX.HEVC.DTS-HD.MA.TrueHD.7.1.Atmos-FGT
Language : English
Service kind : Complete Main
Default : No
Forced : No

Text #1
ID : 18
Format : PGS
Muxing mode : zlib
Codec ID : S_HDMV/PGS
Codec ID/Info : Picture based subtitle format used on BDs/HD-DVDs
Duration : 1 h 0 min
Bit rate : 33.7 kb/s
Count of elements : 1290
Stream size : 14.5 MiB (0%)
Title : English-PGS
Language : English
Default : Yes
Forced : No

Text #2
ID : 19
Format : PGS
Muxing mode : zlib
Codec ID : S_HDMV/PGS
Codec ID/Info : Picture based subtitle format used on BDs/HD-DVDs
Duration : 58 min 29 s
Bit rate : 32.3 kb/s
Count of elements : 1102
Stream size : 13.5 MiB (0%)
Title : French-PGS
Language : French
Default : No
Forced : No

Text #3
ID : 20
Format : PGS
Muxing mode : zlib
Codec ID : S_HDMV/PGS
Codec ID/Info : Picture based subtitle format used on BDs/HD-DVDs
Duration : 58 min 29 s
Bit rate : 31.7 kb/s
Count of elements : 1104
Stream size : 13.3 MiB (0%)
Title : Spanish-PGS
Language : Spanish
Default : No
Forced : No

Text #4
ID : 21
Format : PGS
Muxing mode : zlib
Codec ID : S_HDMV/PGS
Codec ID/Info : Picture based subtitle format used on BDs/HD-DVDs
Duration : 58 min 29 s
Bit rate : 31.9 kb/s
Count of elements : 1104
Stream size : 13.3 MiB (0%)
Title : Spanish-PGS
Language : Spanish
Default : No
Forced : No

Text #5
ID : 22
Format : PGS
Muxing mode : zlib
Codec ID : S_HDMV/PGS
Codec ID/Info : Picture based subtitle format used on BDs/HD-DVDs
Duration : 58 min 29 s
Bit rate : 37.0 kb/s
Count of elements : 1102
Stream size : 15.5 MiB (0%)
Title : German-PGS
Language : German
Default : No
Forced : No

Text #6
ID : 23
Format : PGS
Muxing mode : zlib
Codec ID : S_HDMV/PGS
Codec ID/Info : Picture based subtitle format used on BDs/HD-DVDs
Duration : 1 h 0 min
Bit rate : 32.9 kb/s
Count of elements : 1296
Stream size : 14.2 MiB (0%)
Title : Italian-PGS
Language : Italian
Default : No
Forced : No

Text #7
ID : 24
Format : PGS
Muxing mode : zlib
Codec ID : S_HDMV/PGS
Codec ID/Info : Picture based subtitle format used on BDs/HD-DVDs
Duration : 58 min 29 s
Bit rate : 29.2 kb/s
Count of elements : 1102
Stream size : 12.2 MiB (0%)
Title : Portuguese-PGS
Language : Portuguese
Default : No
Forced : No

Text #8
ID : 25
Format : PGS
Muxing mode : zlib
Codec ID : S_HDMV/PGS
Codec ID/Info : Picture based subtitle format used on BDs/HD-DVDs
Duration : 57 min 13 s
Bit rate : 29.3 kb/s
Count of elements : 900
Stream size : 12.0 MiB (0%)
Title : Czech-PGS
Language : Czech
Default : No
Forced : No

Text #9
ID : 26
Format : PGS
Muxing mode : zlib
Codec ID : S_HDMV/PGS
Codec ID/Info : Picture based subtitle format used on BDs/HD-DVDs
Duration : 58 min 20 s
Bit rate : 24.5 kb/s
Count of elements : 1068
Stream size : 10.2 MiB (0%)
Title : Hungarian-PGS
Language : Hungarian
Default : No
Forced : No

Text #10
ID : 27
Format : PGS
Muxing mode : zlib
Codec ID : S_HDMV/PGS
Codec ID/Info : Picture based subtitle format used on BDs/HD-DVDs
Duration : 58 min 23 s
Bit rate : 24.7 kb/s
Count of elements : 944
Stream size : 10.3 MiB (0%)
Title : Polish-PGS
Language : Polish
Default : No
Forced : No

Text #11
ID : 28
Format : PGS
Muxing mode : zlib
Codec ID : S_HDMV/PGS
Codec ID/Info : Picture based subtitle format used on BDs/HD-DVDs
Duration : 58 min 28 s
Bit rate : 24.1 kb/s
Count of elements : 1164
Stream size : 10.1 MiB (0%)
Title : Russian-PGS
Language : Russian
Default : No
Forced : No

Text #12
ID : 29
Format : PGS
Muxing mode : zlib
Codec ID : S_HDMV/PGS
Codec ID/Info : Picture based subtitle format used on BDs/HD-DVDs
Duration : 58 min 29 s
Bit rate : 29.6 kb/s
Count of elements : 1076
Stream size : 12.4 MiB (0%)
Title : Dutch-PGS
Language : Dutch
Default : No
Forced : No

Text #13
ID : 30
Format : PGS
Muxing mode : zlib
Codec ID : S_HDMV/PGS
Codec ID/Info : Picture based subtitle format used on BDs/HD-DVDs
Duration : 58 min 29 s
Bit rate : 31.2 kb/s
Count of elements : 1102
Stream size : 13.1 MiB (0%)
Title : Danish-PGS
Language : Danish
Default : No
Forced : No

Text #14
ID : 31
Format : PGS
Muxing mode : zlib
Codec ID : S_HDMV/PGS
Codec ID/Info : Picture based subtitle format used on BDs/HD-DVDs
Duration : 58 min 29 s
Bit rate : 27.1 kb/s
Count of elements : 1104
Stream size : 11.3 MiB (0%)
Title : Finnish-PGS
Language : Finnish
Default : No
Forced : No

Text #15
ID : 32
Format : PGS
Muxing mode : zlib
Codec ID : S_HDMV/PGS
Codec ID/Info : Picture based subtitle format used on BDs/HD-DVDs
Duration : 58 min 29 s
Bit rate : 29.5 kb/s
Count of elements : 1104
Stream size : 12.4 MiB (0%)
Title : Norwegian-PGS
Language : Norwegian
Default : No
Forced : No

Text #16
ID : 33
Format : PGS
Muxing mode : zlib
Codec ID : S_HDMV/PGS
Codec ID/Info : Picture based subtitle format used on BDs/HD-DVDs
Duration : 58 min 29 s
Bit rate : 29.3 kb/s
Count of elements : 1104
Stream size : 12.3 MiB (0%)
Title : Swedish-PGS
Language : Swedish
Default : No
Forced : No

Text #17
ID : 34
Format : PGS
Muxing mode : zlib
Codec ID : S_HDMV/PGS
Codec ID/Info : Picture based subtitle format used on BDs/HD-DVDs
Duration : 57 min 13 s
Bit rate : 22.8 kb/s
Count of elements : 766
Stream size : 9.32 MiB (0%)
Title : Croatian-PGS
Language : Croatian
Default : No
Forced : No

Text #18
ID : 35
Format : PGS
Muxing mode : zlib
Codec ID : S_HDMV/PGS
Codec ID/Info : Picture based subtitle format used on BDs/HD-DVDs
Duration : 59 min 35 s
Bit rate : 28.1 kb/s
Count of elements : 1118
Stream size : 12.0 MiB (0%)
Title : Greek-PGS
Language : Greek
Default : No
Forced : No

Text #19
ID : 36
Format : PGS
Muxing mode : zlib
Codec ID : S_HDMV/PGS
Codec ID/Info : Picture based subtitle format used on BDs/HD-DVDs
Duration : 58 min 20 s
Bit rate : 15.9 kb/s
Count of elements : 862
Stream size : 6.65 MiB (0%)
Title : Hebrew-PGS
Language : Hebrew
Default : No
Forced : No

Text #20
ID : 37
Format : PGS
Muxing mode : zlib
Codec ID : S_HDMV/PGS
Codec ID/Info : Picture based subtitle format used on BDs/HD-DVDs
Duration : 58 min 28 s
Bit rate : 26.5 kb/s
Count of elements : 1022
Stream size : 11.1 MiB (0%)
Title : Portuguese-PGS
Language : Portuguese
Default : No
Forced : No

Text #21
ID : 38
Format : PGS
Muxing mode : zlib
Codec ID : S_HDMV/PGS
Codec ID/Info : Picture based subtitle format used on BDs/HD-DVDs
Duration : 57 min 13 s
Bit rate : 24.4 kb/s
Count of elements : 1002
Stream size : 9.99 MiB (0%)
Title : Romanian-PGS
Language : Romanian
Default : No
Forced : No

Text #22
ID : 39
Format : PGS
Muxing mode : zlib
Codec ID : S_HDMV/PGS
Codec ID/Info : Picture based subtitle format used on BDs/HD-DVDs
Duration : 57 min 14 s
Bit rate : 22.4 kb/s
Count of elements : 766
Stream size : 9.17 MiB (0%)
Title : Slovenian-PGS
Language : Slovenian
Default : No
Forced : No

Text #23
ID : 40
Format : PGS
Muxing mode : zlib
Codec ID : S_HDMV/PGS
Codec ID/Info : Picture based subtitle format used on BDs/HD-DVDs
Duration : 58 min 29 s
Bit rate : 25.8 kb/s
Count of elements : 1104
Stream size : 10.8 MiB (0%)
Title : Turkish-PGS
Language : Turkish
Default : No
Forced : No

Text #24
ID : 41
Format : PGS
Muxing mode : zlib
Codec ID : S_HDMV/PGS
Codec ID/Info : Picture based subtitle format used on BDs/HD-DVDs
Duration : 58 min 29 s
Bit rate : 19.8 kb/s
Count of elements : 1128
Stream size : 8.30 MiB (0%)
Title : Chinese-PGS
Language : Chinese
Default : No
Forced : No

Text #25
ID : 42
Format : PGS
Muxing mode : zlib
Codec ID : S_HDMV/PGS
Codec ID/Info : Picture based subtitle format used on BDs/HD-DVDs
Duration : 57 min 13 s
Bit rate : 16.2 kb/s
Count of elements : 1056
Stream size : 6.63 MiB (0%)
Title : Korean-PGS
Language : Korean
Default : No
Forced : No

Text #26
ID : 43
Format : PGS
Muxing mode : zlib
Codec ID : S_HDMV/PGS
Codec ID/Info : Picture based subtitle format used on BDs/HD-DVDs
Duration : 58 min 29 s
Bit rate : 20.1 kb/s
Count of elements : 1106
Stream size : 8.42 MiB (0%)
Title : Thai-PGS
Language : Thai
Default : No
Forced : No

Menu
00:00:00.000 : en:Chapter 1
00:00:08.008 : en:Chapter 2
00:07:18.438 : en:Chapter 3
00:08:58.538 : en:Chapter 4
00:18:16.512 : en:Chapter 5
00:28:48.560 : en:Chapter 6
00:39:37.583 : en:Chapter 7
00:50:02.040 : en:Chapter 8
01:00:34.631 : en:Chapter 9





1 个附件 售价 大小 下载 时间

Game.of.Thrones.S01.2160p.BluRay.REMUX.HEVC.DTS-HD.MA.TrueHD.7.1.Atmos-FGT.torrent 0 金币 741.50K 546 次 6月前

#1楼
发帖时间:2019-05-22 21:02:36   |   回复数:5
DOWSON
江湖小虾
有没有字幕呀?
6月前 #2楼
liyouchai
隐世仙人♂
谢谢楼主分享资源
6月前 #3楼
grayai
小有名气
引用 DOWSON:

有没有字幕呀?


Text #24,中文字幕

6月前 #4楼
911degrees
隐世仙人♂
非常感谢,谢谢分享
6月前 #5楼
blue23
隐世仙人♂
感谢楼主分享
6月前 #6楼
游客组