conanlcg
超级版主

[2011] [其他] [喜剧] [BD-1080P] 僵尸胡安 Juan.of.the.Dead.2011.LIMITED.1080p.BluRay.x264-USURY 7.65GB

-->

帖子完整标题:僵尸胡安 Juan.of.the.Dead.2011.LIMITED.1080p.BluRay.x264-USURY 7.65GB




◎译  名 僵尸胡安 / Juan of the Dead / 死不了的阿璜(台)
◎片  名 Juan de los Muertos
◎年  代 2011
◎产  地 西班牙 / 古巴
◎类  别 喜剧 / 恐怖
◎语  言 西班牙语
◎上映日期 2011-09-10(多伦多电影节) / 2012-01-13(西班牙)
◎IMDb评分 6.5/10 from 9135 users
◎IMDb链接 http://www.imdb.com/title/tt1838571
◎豆瓣评分 7.2/10 from 11907 users
◎豆瓣链接 https://movie.douban.com/subject/6719716/
◎片  长 96分钟
◎导  演 Alejandro Brugués
◎编  剧 Alejandro Brugués
◎主  演 Andrea Duro
      Jorge Molina
      Luis Alberto García
      Andros Perugorría
      Jazz Vilá
      Eliecer Ramírez
      Antonio Dechent
      Blanca Rosa Blanco


◎标  签 黑色幽默 | 僵尸 | 喜剧 | 古巴 | 西班牙 | 丧尸 | Cult | 2011

◎简  介

  社会主义国家古巴,生活在社会最底层的中年男子胡安(Alexis Díaz de Villegas 饰)一事无成,他和老婆离婚,女儿卡米拉(Andrea Duro 饰)也全然不将其放在眼里。胡安终日和两位损友拉扎洛(Jorge Molina 饰)、加利福尼亚(Andros Perugorría 饰)胡混,未来全无希望。某天,平静的城市突然布满恐慌,一种莫名的僵尸病毒肆意蔓延,所有被感染的人类全部化身嗜血如命的丧尸。在人们心生惶恐、急欲逃离这座城市的时候,胡安却想出一条生财之道。他召集好友和其他市民组成一个小公司,专门负责帮那些不忍对亲人化作丧尸的正常人动手。他的事业蒸蒸日上,而与女儿的关系也渐渐弥合……
本片荣获2012年布鲁塞尔国际奇幻电影节银鸦奖、2012年葡萄牙奇幻电影节最佳男主角奖(Alexis Díaz de Villegas)、2012年迈阿密电影节观众奖。

◎获奖情况

  第27届西班牙戈雅奖(2013)
  最佳伊比利亚美洲电影 亚历杭德罗·布鲁格斯



Video
ID : 1
Format : AVC
Format/Info : Advanced Video Codec
Format profile : [email protected]
Format settings : CABAC / 4 Ref Frames
Format settings, CABAC : Yes
Format settings, ReFrames : 4 frames
Codec ID : V_MPEG4/ISO/AVC
Duration : 1 h 36 min
Bit rate : 9 428 kb/s
Width : 1 920 pixels
Height : 1 040 pixels
Display aspect ratio : 1.85:1
Frame rate mode : Constant
Frame rate : 23.976 FPS
Color space : YUV
Chroma subsampling : 4:2:0
Bit depth : 8 bits
Scan type : Progressive
Bits/(Pixel*Frame) : 0.197
Stream size : 6.33 GiB (83%)
Writing library : x264 core 146 r2538 121396c
Encoding settings : cabac=1 / ref=4 / deblock=1:0:0 / analyse=0x3:0x133 / me=umh / subme=7 / psy=1 / psy_rd=1.00:0.00 / mixed_ref=1 / me_range=16 / chroma_me=1 / trellis=1 / 8x8dct=1 / cqm=0 / deadzone=21,11 / fast_pskip=0 / chroma_qp_offset=-2 / threads=60 / lookahead_threads=8 / sliced_threads=0 / nr=0 / decimate=1 / interlaced=0 / bluray_compat=0 / constrained_intra=0 / bframes=3 / b_pyramid=2 / b_adapt=2 / b_bias=0 / direct=3 / weightb=1 / open_gop=0 / weightp=2 / keyint=250 / keyint_min=23 / scenecut=40 / intra_refresh=0 / rc_lookahead=50 / rc=2pass / mbtree=1 / bitrate=9428 / ratetol=1.0 / qcomp=0.60 / qpmin=0 / qpmax=69 / qpstep=4 / cplxblur=20.0 / qblur=0.5 / ip_ratio=1.40 / aq=1:1.00
Language : English
Default : Yes
Forced : No

Audio
ID : 2
Format : DTS
Format/Info : Digital Theater Systems
Codec ID : A_DTS
Duration : 1 h 36 min
Bit rate mode : Constant
Bit rate : 1 509 kb/s
Channel(s) : 6 channels
Channel layout : C L R Ls Rs LFE
Sampling rate : 48.0 kHz
Frame rate : 93.750 FPS (512 SPF)
Bit depth : 24 bits
Compression mode : Lossy
Stream size : 1.01 GiB (13%)
Language : Spanish
Default : Yes
Forced : No

Text
ID : 4
Format : UTF-8
Codec ID : S_TEXT/UTF8
Codec ID/Info : UTF-8 Plain Text
Duration : 1 h 31 min
Bit rate : 44 b/s
Count of elements : 853
Stream size : 29.7 KiB (0%)
Language : English
Default : Yes
Forced : Yes

Menu
00:00:00.000 : en:00:00:00.000
00:06:26.553 : en:00:06:26.553
00:14:47.970 : en:00:14:47.970
00:21:22.865 : en:00:21:22.865
00:25:11.760 : en:00:25:11.760
00:33:06.902 : en:00:33:06.902
00:44:38.259 : en:00:44:38.259
00:50:11.383 : en:00:50:11.383
01:04:03.089 : en:01:04:03.089
01:10:51.038 : en:01:10:51.038
01:24:52.671 : en:01:24:52.671
01:31:03.208 : en:01:31:03.208





1 个附件 售价 大小 下载 时间

Juan.of.the.Dead.2011.LIMITED.1080p.BluRay.x264-USURY.torrent 0 金币 38.79K 511 次 3月前

#1楼
发帖时间:2019-05-22 21:27:02   |   回复数:3
liyouchai
隐世仙人♂
谢谢楼主分享资源
3月前 #2楼
911degrees
隐世仙人♂
非常感谢,谢谢分享
3月前 #3楼
blue23
隐世仙人♂
感谢楼主分享
3月前 #4楼
游客组