conanlcg
超级版主

[2011] [欧美] [剧情] [HDTV/HDrip] 马米塔斯/小美女 Mamitas.2011.1080p.HDRip.x264.AAC2.0-FGT 5.69GB

-->

帖子完整标题:马米塔斯/小美女 Mamitas.2011.1080p.HDRip.x264.AAC2.0-FGT 5.69GB




◎译  名 马米塔斯 / 小美女
◎片  名 Mamitas
◎年  代 2011
◎产  地 美国
◎类  别 剧情
◎语  言 英语
◎上映日期 2011-06-01
◎IMDb评分 7.1/10 from 413 users
◎IMDb链接 http://www.imdb.com/title/tt1863323
◎豆瓣评分 0/10 from 0 users
◎豆瓣链接 https://movie.douban.com/subject/10591106/
◎片  长 109分钟
◎导  演 Nicholas Ozeki
◎编  剧 Nicholas Ozeki
◎主  演 Josue Aguirre
      Maynor Alvarado
      Pedro Armendáriz Jr.


◎标  签 美国 | 青春 | 剧情 | 2011

◎简  介

  The day Jordin is suspended from school for insulting a teacher, he meets Felipa, a bookish, no-nonsense New York girl who sees past the swaggering facade.

◎获奖情况

  第27届美国独立精神奖(2012)
  值得关注新人奖(提名) Nicholas Ozeki



Video
ID : 2
Format : AVC
Format/Info : Advanced Video Codec
Format profile : [email protected]
Format settings, CABAC : No
Format settings, ReFrames : 3 frames
Format settings, GOP : N=1
Codec ID : avc1
Codec ID/Info : Advanced Video Coding
Duration : 1h 48mn
Bit rate : 7 345 Kbps
Width : 1 912 pixels
Height : 1 072 pixels
Display aspect ratio : 16:9
Frame rate mode : Constant
Frame rate : 23.976 fps
Color space : YUV
Chroma subsampling : 4:2:0
Bit depth : 8 bits
Scan type : Progressive
Bits/(Pixel*Frame) : 0.149
Stream size : 5.59 GiB (98%)
Writing library : x264 core 135
Encoding settings : cabac=0 / ref=3 / deblock=1:0:0 / analyse=0x1:0x11 / me=hex / subme=7 / psy=1 / psy_rd=1.00:0.00 / mixed_ref=1 / me_range=16 / chroma_me=0 / trellis=2 / 8x8dct=0 / cqm=0 / deadzone=21,11 / fast_pskip=1 / chroma_qp_offset=-2 / threads=6 / lookahead_threads=1 / sliced_threads=0 / nr=0 / decimate=1 / interlaced=0 / bluray_compat=0 / constrained_intra=0 / bframes=0 / weightp=0 / keyint=300 / keyint_min=25 / scenecut=40 / intra_refresh=0 / rc_lookahead=40 / rc=crf / mbtree=1 / crf=22.0 / qcomp=0.60 / qpmin=10 / qpmax=51 / qpstep=4 / ip_ratio=1.40 / aq=1:1.00

Audio
ID : 1
Format : AAC
Format/Info : Advanced Audio Codec
Format profile : LC
Codec ID : 40
Duration : 1h 49mn
Bit rate mode : Variable
Bit rate : 128 Kbps
Maximum bit rate : 210 Kbps
Channel(s) : 2 channels
Channel positions : Front: L R
Sampling rate : 48.0 KHz
Compression mode : Lossy
Stream size : 99.8 MiB (2%)
Language : English





1 个附件 售价 大小 下载 时间

Mamitas.2011.1080p.HDRip.x264.AAC2.0-FGT.torrent 0 金币 57.55K 266 次 2月前

#1楼
发帖时间:2019-05-23 10:00:39   |   回复数:3
blue23
隐世仙人♂
感谢楼主分享
2月前 #2楼
911degrees
隐世仙人♂
非常感谢,谢谢分享
2月前 #3楼
liyouchai
隐世仙人♂
谢谢楼主分享资源
2月前 #4楼
游客组