conanlcg
超级版主

[2016] [欧美] [其他] [BD-1080P] 消防员山姆: 外星人入侵 Fireman.Sam.Alien.Alert.The.Movie.2016.1080p.BluRay.x264-RUSTED 4.3

-->

帖子完整标题:消防员山姆: 外星人入侵 Fireman.Sam.Alien.Alert.The.Movie.2016.1080p.BluRay.x264-RUSTED 4.37GB




◎译  名 消防员山姆: 外星人入侵
◎片  名 Fireman Sam: Alien Alert! The Movie
◎年  代 2016
◎产  地 英国
◎类  别 动画
◎语  言 英语
◎IMDb评分 5.5/10 from 86 users
◎IMDb链接 http://www.imdb.com/title/tt6562798
◎豆瓣评分 0/10 from 0 users
◎豆瓣链接 https://movie.douban.com/subject/27046349/
◎片  长 60分钟
◎导  演 Gary Andrews
◎编  剧 Laura Beaumont
◎主  演 David Carling


◎简  介

  Buck Douglas, the famous "Alien Quest" TV show host visits Pontypandy and everyone in town searches for aliens.

Video
ID : 1
Format : AVC
Format/Info : Advanced Video Codec
Format profile : [email protected]
Format settings, CABAC : Yes
Format settings, ReFrames : 4 frames
Codec ID : V_MPEG4/ISO/AVC
Duration : 1h 0mn
Bit rate : 9 958 Kbps
Width : 1 920 pixels
Height : 1 080 pixels
Display aspect ratio : 16:9
Frame rate mode : Constant
Frame rate : 25.000 fps
Color space : YUV
Chroma subsampling : 4:2:0
Bit depth : 8 bits
Scan type : Progressive
Bits/(Pixel*Frame) : 0.192
Stream size : 4.18 GiB (96%)
Writing library : x264 core 150 r2833 df79067
Encoding settings : cabac=1 / ref=4 / deblock=1:1:1 / analyse=0x3:0x133 / me=umh / subme=8 / psy=1 / psy_rd=1.00:0.00 / mixed_ref=1 / me_range=16 / chroma_me=1 / trellis=1 / 8x8dct=1 / cqm=0 / deadzone=21,11 / fast_pskip=0 / chroma_qp_offset=-2 / threads=16 / lookahead_threads=2 / sliced_threads=0 / nr=0 / decimate=1 / interlaced=0 / bluray_compat=0 / constrained_intra=0 / bframes=3 / b_pyramid=2 / b_adapt=2 / b_bias=0 / direct=3 / weightb=1 / open_gop=0 / weightp=2 / keyint=250 / keyint_min=25 / scenecut=40 / intra_refresh=0 / rc_lookahead=50 / rc=2pass / mbtree=1 / bitrate=9958 / ratetol=1.0 / qcomp=0.60 / qpmin=0 / qpmax=69 / qpstep=4 / cplxblur=20.0 / qblur=0.5 / ip_ratio=1.40 / aq=1:1.00
Default : Yes
Forced : No

Audio
ID : 2
Format : AC-3
Format/Info : Audio Coding 3
Mode extension : CM (complete main)
Format settings, Endianness : Big
Codec ID : A_AC3
Duration : 1h 0mn
Bit rate mode : Constant
Bit rate : 448 Kbps
Channel(s) : 6 channels
Channel positions : Front: L C R, Side: L R, LFE
Sampling rate : 48.0 KHz
Frame rate : 31.250 fps (1536 spf)
Compression mode : Lossy
Stream size : 193 MiB (4%)
Language : English
Default : Yes
Forced : No

Menu
00:00:00.000 : en:00:00:00.000
00:02:49.000 : en:00:02:49.000
00:06:49.200 : en:00:06:49.200
00:11:17.040 : en:00:11:17.040
00:15:21.000 : en:00:15:21.000
00:19:01.760 : en:00:19:01.760
00:21:12.760 : en:00:21:12.760
00:25:31.240 : en:00:25:31.240
00:30:16.440 : en:00:30:16.440
00:38:23.840 : en:00:38:23.840
00:40:47.920 : en:00:40:47.920
00:47:29.840 : en:00:47:29.840
00:53:53.800 : en:00:53:53.800
00:58:11.400 : en:00:58:11.400
00:59:14.000 : en:00:59:14.000





1 个附件 售价 大小 下载 时间

Fireman.Sam.Alien.Alert.The.Movie.2016.1080p.BluRay.x264-RUSTED.torrent 0 金币 175.43K 315 次 4月前

#1楼
发帖时间:2019-05-24 23:27:04   |   回复数:3
liyouchai
隐世仙人♂
谢谢楼主分享资源
4月前 #2楼
911degrees
隐世仙人♂
非常感谢,谢谢分享
4月前 #3楼
tanchoohoon
武林盟主
               
谢谢楼主分享
4月前 #4楼
游客组