conanlcg
超级版主

[更 早] [欧美] [剧情] [BD-1080P] 致命复仇 Vengeance.2004.1080p.BluRay.x264-SADPANDA 5.46GB

-->

帖子完整标题:致命复仇 Vengeance.2004.1080p.BluRay.x264-SADPANDA 5.46GB




◎译  名 致命复仇
◎片  名 Vengeance
◎年  代 2004
◎产  地 美国
◎类  别 剧情 / 动作 / 犯罪
◎语  言 英语
◎上映日期 2004-04-06(美国)
◎IMDb评分 4.8/10 from 81 users
◎IMDb链接 http://www.imdb.com/title/tt0365889
◎豆瓣评分 0/10 from 0 users
◎豆瓣链接 https://movie.douban.com/subject/5237638/
◎片  长 USA: 87 分钟
◎导  演 Daniel Zirilli
◎编  剧 Joseph Marino

◎简  介

  基于真实事件改编,故事讲述的是老派的拉丁美洲杀手的复仇和忏悔。当老派杀手的女儿被她嫉妒的男友杀害,迫使他不得不重操旧业,但复仇的血腥永远不会是最后的结束。

Video
ID : 1
Format : AVC
Format/Info : Advanced Video Codec
Format profile : [email protected]
Format settings, CABAC : Yes
Format settings, ReFrames : 4 frames
Codec ID : V_MPEG4/ISO/AVC
Duration : 1h 26mn
Bit rate : 8 420 Kbps
Width : 1 888 pixels
Height : 1 080 pixels
Display aspect ratio : 16:9
Frame rate mode : Constant
Frame rate : 23.976 (23976/1000) fps
Color space : YUV
Chroma subsampling : 4:2:0
Bit depth : 8 bits
Scan type : Progressive
Bits/(Pixel*Frame) : 0.172
Stream size : 5.08 GiB (93%)
Writing library : x264 core 144 r2525 40bb568
Encoding settings : cabac=1 / ref=4 / deblock=1:0:0 / analyse=0x3:0x133 / me=umh / subme=8 / psy=1 / psy_rd=1.00:0.00 / mixed_ref=1 / me_range=16 / chroma_me=1 / trellis=1 / 8x8dct=1 / cqm=0 / deadzone=21,11 / fast_pskip=0 / chroma_qp_offset=-2 / threads=12 / lookahead_threads=2 / sliced_threads=0 / nr=0 / decimate=1 / interlaced=0 / bluray_compat=0 / constrained_intra=0 / bframes=3 / b_pyramid=2 / b_adapt=1 / b_bias=0 / direct=1 / weightb=1 / open_gop=0 / weightp=2 / keyint=250 / keyint_min=23 / scenecut=40 / intra_refresh=0 / rc_lookahead=40 / rc=2pass / mbtree=1 / bitrate=8420 / ratetol=1.0 / qcomp=0.60 / qpmin=0 / qpmax=69 / qpstep=4 / cplxblur=20.0 / qblur=0.5 / ip_ratio=1.40 / aq=1:1.00
Language : English
Default : Yes
Forced : No

Audio
ID : 2
Format : AC-3
Format/Info : Audio Coding 3
Mode extension : CM (complete main)
Format settings, Endianness : Big
Codec ID : A_AC3
Duration : 1h 26mn
Bit rate mode : Constant
Bit rate : 640 Kbps
Channel(s) : 2 channels
Channel positions : Front: L R
Sampling rate : 48.0 KHz
Frame rate : 31.250 fps (1536 spf)
Compression mode : Lossy
Stream size : 395 MiB (7%)
Language : English
Default : Yes
Forced : No





1 个附件 售价 大小 下载 时间

Vengeance.2004.1080p.BluRay.x264-SADPANDA.torrent 0 金币 55.23K 259 次 3月前

#1楼
发帖时间:2019-05-25 01:42:03   |   回复数:2
911degrees
隐世仙人♂
非常感谢,谢谢分享
3月前 #2楼
liyouchai
隐世仙人♂
谢谢楼主分享资源
3月前 #3楼
游客组