conanlcg
超级版主

[2011] [欧美] [其他] [BD-1080P] 全明星超人 All.Star.Superman.2011.1080p.BluRay.x264-CiNEFiLE 4.37GB

-->

帖子完整标题:全明星超人 All.Star.Superman.2011.1080p.BluRay.x264-CiNEFiLE 4.37GB




◎译  名 全明星超人
◎片  名 All-Star Superman
◎年  代 2011
◎产  地 美国
◎类  别 动画
◎语  言 英语
◎上映日期 2011-02-22
◎IMDb评分 7.0/10 from 12457 users
◎IMDb链接 http://www.imdb.com/title/tt1699114
◎豆瓣评分 7.2/10 from 1846 users
◎豆瓣链接 https://movie.douban.com/subject/5975341/
◎片  长 75分钟
◎导  演 Sam Liu
◎编  剧 Dwayne McDuffie
◎主  演 克里斯蒂娜·亨德里克斯 Christina Hendricks
      Linda Cardellini
      Matthew Gray Gubler


◎标  签 动画 | DC | 美国 | 超人 | 科幻 | 2011 | 漫画改编 | 动画片

◎简  介

  根据Grant Morrison编剧,Frank Quitely绘画的同名原作改编,预计2011年春季发行。
为了拯救一艘探索太阳的载人飞船,超人吸收了过量的太阳能量。虽然他因此变得前所未有地强大,但饱和的细胞却将超人一步步推向死亡!在他生命的最后日子里,超人会经历怎样的冒险?心仪已久的露易丝会如何接受他的告白?未来的超人联盟是否存在?超人真的是氪星的唯一幸存者吗?毒太阳究竟是什么……这一切到底跟阴险的卢索有什么关系?
德国华纳家庭录像(Warner Home Video)已经宣布将于2月25日发行该片的DVD版及蓝光版,根据同名漫画改编。携带英法德德葡西语音轨及德英西文字幕,花絮包括有随片讲评、制作特辑及预告片等内容。

Video
ID : 1
Format : AVC
Format/Info : Advanced Video Codec
Format profile : [email protected]
Format settings : CABAC / 4 Ref Frames
Format settings, CABAC : Yes
Format settings, ReFrames : 4 frames
Codec ID : V_MPEG4/ISO/AVC
Duration : 1 h 16 min
Bit rate : 6 661 kb/s
Width : 1 920 pixels
Height : 1 080 pixels
Display aspect ratio : 16:9
Frame rate mode : Constant
Frame rate : 23.976 (24000/1001) FPS
Color space : YUV
Chroma subsampling : 4:2:0
Bit depth : 8 bits
Scan type : Progressive
Bits/(Pixel*Frame) : 0.134
Stream size : 3.48 GiB (80%)
Writing library : x264 core 114 r1924 08d04a4
Encoding settings : cabac=1 / ref=4 / deblock=1:0:0 / analyse=0x3:0x133 / me=umh / subme=7 / psy=1 / psy_rd=1.00:0.00 / mixed_ref=1 / me_range=16 / chroma_me=1 / trellis=1 / 8x8dct=1 / cqm=0 / deadzone=21,11 / fast_pskip=0 / chroma_qp_offset=-2 / threads=12 / sliced_threads=0 / nr=0 / decimate=1 / interlaced=0 / constrained_intra=0 / bframes=3 / b_pyramid=2 / b_adapt=1 / b_bias=0 / direct=3 / weightb=1 / open_gop=0 / weightp=2 / keyint=250 / keyint_min=23 / scenecut=40 / intra_refresh=0 / rc_lookahead=40 / rc=2pass / mbtree=1 / bitrate=6661 / ratetol=1.0 / qcomp=0.60 / qpmin=0 / qpmax=69 / qpstep=4 / cplxblur=20.0 / qblur=0.5 / ip_ratio=1.40 / aq=1:1.00
Language : English
Default : Yes
Forced : No

Audio
ID : 2
Format : DTS
Format/Info : Digital Theater Systems
Codec ID : A_DTS
Duration : 1 h 16 min
Bit rate mode : Constant
Bit rate : 1 509 kb/s
Channel(s) : 6 channels
Channel layout : C L R Ls Rs LFE
Sampling rate : 48.0 kHz
Frame rate : 93.750 FPS (512 SPF)
Bit depth : 24 bits
Compression mode : Lossy
Stream size : 827 MiB (18%)
Language : English
Default : Yes
Forced : No

Text
ID : 3
Format : UTF-8
Codec ID : S_TEXT/UTF8
Codec ID/Info : UTF-8 Plain Text
Language : English
Default : No
Forced : No





1 个附件 售价 大小 下载 时间

All.Star.Superman.2011.1080p.BluRay.x264-CiNEFiLE.torrent 0 金币 44.27K 679 次 3月前

#1楼
发帖时间:2019-05-25 06:51:30   |   回复数:2
911degrees
隐世仙人♂
非常感谢,谢谢分享
3月前 #2楼
liyouchai
隐世仙人♂
谢谢楼主分享资源
3月前 #3楼
游客组