conanlcg
超级版主

[2011] [日本] [剧情] [BD-1080P] 给桃子的信 A.Letter.to.Momo.2011.1080p.BluRay.x264-WaLMaRT 6.60GB

-->

帖子完整标题:给桃子的信 A.Letter.to.Momo.2011.1080p.BluRay.x264-WaLMaRT 6.60GB




◎译  名 给桃子的信 / A Letter to Momo / Momoe no tegami / 小桃の奇幻手纸(港) / 给小桃的信(台)
◎片  名 ももへの手紙
◎年  代 2011
◎产  地 日本
◎类  别 剧情 / 动画
◎语  言 日语
◎上映日期 2011-09-10(多伦多电影节) / 2012-04-21(日本)
◎IMDb评分 7.3/10 from 5714 users
◎IMDb链接 http://www.imdb.com/title/tt1853614
◎豆瓣评分 8.2/10 from 41476 users
◎豆瓣链接 https://movie.douban.com/subject/6010171/
◎片  长 120分钟
◎导  演 冲勇启之 Hiroyuki Okiura
◎编  剧 冲勇启之 Hiroyuki Okiura
◎主  演 美山加恋 Karen Miyama
      优香 Yuka
      坂口芳贞 Yoshisada Sakaguchi
      谷育子 Ikuko Tani
      小川刚生
      荒川大三郎
      藤井皓太
      桥本佳月
      山本道子
      中博史 Hiroshi Naka
      高桥耕次郎
      冈田吉弘
      前田义信
      福岛桂子
      山口登
      细谷佳正 Yoshimasa Hosoya
      宫崎宽务 Miyazaki Hiromu
      光藤真白
      高田始圣
      田中绫
      藤村天羽
      武田幸史 Takeda Kouji
      岛崎信长 Nobunaga Shimazaki
      长岛雄一 Y?ichi Nagashima
      山寺宏一 K?ichi Yamadera
      西田敏行 Toshiyuki Nishida


◎标  签 动画 | 日本 | 治愈系 | 温情 | 成长 | 日本动漫 | 动漫 | 2012

◎简  介

  11岁的小学6年级女孩宫浦桃子(美山加恋 配音)在父亲意外去世后,随母亲郁子(优香 配音)从东京迁到了濑户内海的汐岛。忙碌的母亲无暇顾及桃子,令桃子在新环境中时常感到孤单无助。桃子一直保留着父亲只写下了“给桃子”这样开头的一封信,但是始终无法明白父亲想要通过信件传达给她的话 。 初到汐岛,桃子打开了阁楼里一个装着描绘妖怪画册的旧盒子,从此开始察觉到身边一连串不可思议的事情。“汐岛上一定存在着什么东西”,怀抱着这样想法的桃子,在汐岛奇异而热闹的夏天里邂逅到的竟会是……?
本片由日本知名动画公司Production I.G制作,是《人狼》导演沖浦啓之睽违多年的温馨治愈之作。

◎获奖情况

  第36届日本电影学院奖(2013)
  最佳动画片(提名)

  第41届动画安妮奖(2014)
  最佳动画长片(提名)

  第3届豆瓣电影鑫像奖(2013)
  鑫豆单元 最佳动画长片(提名)



Video
ID : 1
Format : AVC
Format/Info : Advanced Video Codec
Format profile : [email protected]
Format settings, CABAC : Yes
Format settings, ReFrames : 4 frames
Codec ID : V_MPEG4/ISO/AVC
Duration : 2h 0mn
Bit rate : 6 488 Kbps
Width : 1 920 pixels
Height : 1 080 pixels
Display aspect ratio : 16:9
Frame rate mode : Constant
Frame rate : 23.976 fps
Color space : YUV
Chroma subsampling : 4:2:0
Bit depth : 8 bits
Scan type : Progressive
Bits/(Pixel*Frame) : 0.130
Stream size : 5.34 GiB (82%)
Writing library : x264 core 142 r2491 24e4fed
Encoding settings : cabac=1 / ref=4 / deblock=1:0:0 / analyse=0x3:0x113 / me=umh / subme=8 / psy=1 / psy_rd=1.00:0.00 / mixed_ref=1 / me_range=16 / chroma_me=1 / trellis=1 / 8x8dct=1 / cqm=0 / deadzone=21,11 / fast_pskip=1 / chroma_qp_offset=-2 / threads=12 / lookahead_threads=2 / sliced_threads=0 / nr=0 / decimate=1 / interlaced=0 / bluray_compat=0 / constrained_intra=0 / bframes=3 / b_pyramid=2 / b_adapt=2 / b_bias=0 / direct=3 / weightb=1 / open_gop=0 / weightp=2 / keyint=250 / keyint_min=23 / scenecut=40 / intra_refresh=0 / rc_lookahead=50 / rc=2pass / mbtree=1 / bitrate=6488 / ratetol=1.0 / qcomp=0.60 / qpmin=0 / qpmax=69 / qpstep=4 / cplxblur=20.0 / qblur=0.5 / ip_ratio=1.40 / aq=1:1.00
Default : Yes
Forced : No

Audio
ID : 4
Format : AC-3
Format/Info : Audio Coding 3
Mode extension : CM (complete main)
Format settings, Endianness : Big
Codec ID : A_AC3
Duration : 2h 0mn
Bit rate mode : Constant
Bit rate : 640 Kbps
Channel(s) : 6 channels
Channel positions : Front: L C R, Side: L R, LFE
Sampling rate : 48.0 KHz
Bit depth : 16 bits
Compression mode : Lossy
Stream size : 552 MiB (8%)
Title : Jap
Language : Japanese
Default : Yes
Forced : No

Text #1
ID : 2
Format : UTF-8
Codec ID : S_TEXT/UTF8
Codec ID/Info : UTF-8 Plain Text
Title : English
Language : English
Default : Yes
Forced : No

Text #2
ID : 3
Format : UTF-8
Codec ID : S_TEXT/UTF8
Codec ID/Info : UTF-8 Plain Text
Title : Eng Forced
Language : English
Default : No
Forced : No





1 个附件 售价 大小 下载 时间

A.Letter.to.Momo.2011.1080p.BluRay.x264-WaLMaRT.torrent 0 金币 132.59K 1092 次 6月前

#1楼
发帖时间:2019-05-29 01:20:13   |   回复数:3
liyouchai
隐世仙人♂
谢谢楼主分享资源
6月前 #2楼
911degrees
隐世仙人♂
非常感谢,谢谢分享
6月前 #3楼
tanchoohoon
武林盟主
感谢楼主的无私分享
6月前 #4楼
游客组