conanlcg
超级版主

[2015] [韩国] [动作] [WEB-1080P] 手机 The.Phone.2015.KOREAN.1080p.NF.WEBRip.DD5.1.x264-ARiN 3.52GB

-->

帖子完整标题:手机 The.Phone.2015.KOREAN.1080p.NF.WEBRip.DD5.1.x264-ARiN 3.52GB




◎译  名 手机 / The Phone / 电话 / ??
◎片  名 ? ?
◎年  代 2015
◎产  地 韩国
◎类  别 动作 / 惊悚
◎语  言 韩语
◎上映日期 2015-10-22(韩国)
◎IMDb评分 6.6/10 from 549 users
◎IMDb链接 http://www.imdb.com/title/tt5034276
◎豆瓣评分 6.7/10 from 3573 users
◎豆瓣链接 https://movie.douban.com/subject/26323540/
◎片  长 115分钟
◎导  演 Kim Bong-joo
◎编  剧 Kim Bong-joo
◎主  演 孙贤周 Hyun-joo Son
      严志媛 Ji-won Uhm


◎标  签 韩国 | 悬疑 | 犯罪 | 惊悚 | 2015 | 科幻 | 剧情 | 惊险

◎简  介

  2014年5月16日,在瑞草洞住宅区发生了杀人事件,高东浩(孙贤周饰)的妻子赵妍秀(严智苑饰)被发现惨死家中,而凶手一直未能落网。东浩在妻子被杀害之后生活失意,整日颓废不振难以自拔,他唯一的女儿高景林也因父亲的消沉而备受折磨。一年后的某天,因为磁场异常,东浩发现自己竟然能和一年前的妻子通电话,并且从通话中得到了拯救妻子生命的线索,而给他的时间只有一天。东浩决心一定要抓住这个改变命运的机会,为了救出妻子展开孤军奋战。

Video
ID : 1
Format : AVC
Format/Info : Advanced Video Codec
Format profile : [email protected]
Format settings : CABAC / 3 Ref Frames
Format settings, CABAC : Yes
Format settings, ReFrames : 3 frames
Codec ID : V_MPEG4/ISO/AVC
Duration : 1 h 54 min
Bit rate mode : Variable
Bit rate : 4 020 kb/s
Maximum bit rate : 6 030 kb/s
Width : 1 920 pixels
Height : 1 080 pixels
Display aspect ratio : 16:9
Frame rate mode : Constant
Frame rate : 23.976 (24000/1001) FPS
Color space : YUV
Chroma subsampling : 4:2:0
Bit depth : 8 bits
Scan type : Progressive
Bits/(Pixel*Frame) : 0.081
Stream size : 3.21 GiB (91%)
Writing library : x264 core 118
Encoding settings : cabac=1 / ref=3 / deblock=1:0:0 / analyse=0x1:0x111 / me=umh / subme=10 / psy=1 / psy_rd=1.00:0.00 / mixed_ref=1 / me_range=24 / chroma_me=1 / trellis=2 / 8x8dct=0 / cqm=0 / deadzone=21,11 / fast_pskip=1 / chroma_qp_offset=-2 / threads=8 / sliced_threads=0 / nr=0 / decimate=1 / interlaced=0 / bluray_compat=0 / constrained_intra=0 / bframes=2 / b_pyramid=0 / b_adapt=2 / b_bias=0 / direct=3 / weightb=1 / open_gop=0 / weightp=2 / keyint=48 / keyint_min=25 / scenecut=0 / intra_refresh=0 / rc_lookahead=0 / rc=2pass / mbtree=1 / bitrate=4020 / ratetol=1.0 / qcomp=0.50 / qpmin=6 / qpmax=51 / qpstep=4 / cplxblur=20.0 / qblur=0.5 / vbv_maxrate=6030 / vbv_bufsize=8040 / nal_hrd=vbr / ip_ratio=1.40 / aq=1:1.00
Default : Yes
Forced : No

Audio
ID : 2
Format : AC-3
Format/Info : Audio Coding 3
Commercial name : Dolby Digital
Codec ID : A_AC3
Duration : 1 h 54 min
Bit rate mode : Constant
Bit rate : 384 kb/s
Channel(s) : 6 channels
Channel layout : L R C LFE Ls Rs
Sampling rate : 48.0 kHz
Frame rate : 31.250 FPS (1536 SPF)
Bit depth : 16 bits
Compression mode : Lossy
Stream size : 315 MiB (9%)
Service kind : Complete Main
Default : Yes
Forced : No

Text #1
ID : 3
Format : UTF-8
Codec ID : S_TEXT/UTF8
Codec ID/Info : UTF-8 Plain Text
Duration : 1 h 49 min
Bit rate : 37 b/s
Count of elements : 1143
Stream size : 29.8 KiB (0%)
Language : English
Default : Yes
Forced : Yes

Text #2
ID : 4
Format : UTF-8
Codec ID : S_TEXT/UTF8
Codec ID/Info : UTF-8 Plain Text
Duration : 1 h 52 min
Bit rate : 82 b/s
Count of elements : 1913
Stream size : 67.9 KiB (0%)
Title : SDH
Language : Korean
Default : No
Forced : No





1 个附件 售价 大小 下载 时间

The.Phone.2015.KOREAN.1080p.NF.WEBRip.DD5.1.x264-ARiN.torrent 0 金币 35.78K 1036 次 4月前

#1楼
发帖时间:2019-05-30 20:21:12   |   回复数:2
liyouchai
隐世仙人♂
谢谢楼主分享资源
4月前 #2楼
911degrees
隐世仙人♂
非常感谢,谢谢分享
4月前 #3楼
游客组