conanlcg
超级版主

[2010] [韩国] [惊悚] [WEB-1080P] 不可饶恕 No.Mercy.2010.KOREAN.1080p.WEBRip.x264-RARBG 2.35GB

-->

帖子完整标题:不可饶恕 No.Mercy.2010.KOREAN.1080p.WEBRip.x264-RARBG 2.35GB




◎译  名 不可饶恕 / No Mercy / 无法原谅
◎片  名 ??? ??
◎年  代 2010
◎产  地 韩国
◎类  别 惊悚
◎语  言 韩语
◎上映日期 2010-01-07(韩国)
◎IMDb评分 7.4/10 from 4840 users
◎IMDb链接 http://www.imdb.com/title/tt1662557
◎豆瓣评分 7.8/10 from 40713 users
◎豆瓣链接 https://movie.douban.com/subject/3992381/
◎片  长 125分钟
◎导  演 金亨俊 Hyeong-Joon Kim
◎编  剧 金亨俊 Hyeong-Joon Kim
◎主  演 薛景求 Kyung-gu Sol
      韩惠珍 Hye-jin Han
      柳承范 Seung-beom Ryu


◎标  签 犯罪 | 韩国 | 悬疑 | 韩国电影 | 惊悚 | 意外结局 | 人性 | 复仇

◎简  介

  最近,城市里发生了可怕的杀人事件,一具被切割成6块的女尸的曝光和凶手的逍遥法外引起了社会的恐慌。作为休假的交换条件,搜查科研究员姜民浩(薛景求 饰)接下了这个棘手的案件。行事雷厉风行的他和推理天才闵瑞英(韩惠珍 饰)联手,调查取得了突飞猛进的进展,嫌疑人李圣浩( 柳承范 饰)的名字渐渐浮出水面。
李圣浩一经逮捕就对自己所犯的罪行供认不讳,可是姜民浩却发现事实并不是他所说的那么简单。就在这个节骨眼上,姜民浩的女儿突然失踪,他明白这绝对和李圣浩脱不了干系。李圣浩告诉姜民浩,若想要得知女儿的下落,就必须和他玩一个解谜的游戏——解开他留在尸体上的谜题。一场以生命为筹码的赌注开始了。

Video
ID : 1
Format : AVC
Format/Info : Advanced Video Codec
Format profile : [email protected]
Format settings : CABAC / 4 Ref Frames
Format settings, CABAC : Yes
Format settings, ReFrames : 4 frames
Codec ID : avc1
Codec ID/Info : Advanced Video Coding
Duration : 2 h 3 min
Bit rate : 2 500 kb/s
Width : 1 920 pixels
Height : 816 pixels
Display aspect ratio : 2.35:1
Frame rate mode : Constant
Frame rate : 23.976 (23976/1000) FPS
Color space : YUV
Chroma subsampling : 4:2:0
Bit depth : 8 bits
Scan type : Progressive
Bits/(Pixel*Frame) : 0.067
Stream size : 2.16 GiB (92%)
Writing library : x264 core 152 r2851M ba24899
Encoding settings : cabac=1 / ref=4 / deblock=1:-1:-1 / analyse=0x3:0x113 / me=umh / subme=9 / psy=1 / psy_rd=1.00:0.15 / mixed_ref=1 / me_range=24 / chroma_me=1 / trellis=2 / 8x8dct=1 / cqm=0 / deadzone=21,11 / fast_pskip=1 / chroma_qp_offset=-3 / threads=16 / lookahead_threads=4 / sliced_threads=0 / nr=0 / decimate=1 / interlaced=0 / bluray_compat=0 / constrained_intra=0 / bframes=3 / b_pyramid=2 / b_adapt=2 / b_bias=0 / direct=3 / weightb=1 / open_gop=0 / weightp=2 / keyint=250 / keyint_min=25 / scenecut=40 / intra_refresh=0 / rc_lookahead=50 / rc=2pass / mbtree=1 / bitrate=2500 / ratetol=1.0 / qcomp=0.60 / qpmin=0 / qpmax=69 / qpstep=4 / cplxblur=20.0 / qblur=0.5 / vbv_maxrate=31250 / vbv_bufsize=31250 / nal_hrd=none / filler=0 / ip_ratio=1.40 / aq=3:1.00
Encoded date : UTC 2019-05-30 18:14:24
Tagged date : UTC 2019-05-30 18:14:24
Codec configuration box : avcC

Audio
ID : 2
Format : AAC LC
Format/Info : Advanced Audio Codec Low Complexity
Codec ID : mp4a-40-2
Duration : 2 h 3 min
Duration_LastFrame : -11 ms
Bit rate mode : Constant
Bit rate : 224 kb/s
Channel(s) : 6 channels
Channel layout : C L R Ls Rs LFE
Sampling rate : 48.0 kHz
Frame rate : 46.875 FPS (1024 SPF)
Compression mode : Lossy
Stream size : 198 MiB (8%)
Language : Korean
Default : Yes
Alternate group : 1
Encoded date : UTC 2019-05-30 18:14:24
Tagged date : UTC 2019-05-30 18:14:24





1 个附件 售价 大小 下载 时间

No.Mercy.2010.KOREAN.1080p.WEBRip.x264-RARBG.torrent 0 金币 24.17K 3108 次 3月前

#1楼
发帖时间:2019-05-31 07:41:17   |   回复数:2
911degrees
隐世仙人♂
非常感谢,谢谢分享
3月前 #2楼
liyouchai
隐世仙人♂
谢谢楼主分享资源
3月前 #3楼
游客组