conanlcg
超级版主

[2016] [韩国] [剧情] [WEB-1080P] 分瓶 Split.2016.KOREAN.1080p.WEBRip.x264-RARBG 2.33GB

-->

帖子完整标题:分瓶 Split.2016.KOREAN.1080p.WEBRip.x264-RARBG 2.33GB




◎译  名 分瓶 / Split / 全倒吧!人生(台) / 分屏 / 分裂
◎片  名 ???
◎年  代 2016
◎产  地 韩国
◎类  别 剧情
◎语  言 韩语
◎上映日期 2016-11-16(韩国)
◎IMDb评分 5.3/10 from 186 users
◎IMDb链接 http://www.imdb.com/title/tt6147768
◎豆瓣评分 6.6/10 from 229 users
◎豆瓣链接 https://movie.douban.com/subject/26700491/
◎片  长 121分钟
◎导  演 崔國熙
◎主  演 刘智泰 Ji-tae Yu
      李贞贤 Jung-hyun Lee
      李大为 David Lee
      郑承华 Sung-hwa Jung


◎标  签 韩国 | 韩国电影 | 运动 | 剧情 | 李贞贤 | 2016 | 励志 | 刘智泰

◎简  介

  前保龄球界被称作为传奇人物的“哲宗”(刘智泰饰)由于事故失去一切。白天为产假石油销售员,晚上在保龄球赌场担任选手度日。某天“哲宗”偶然遇见沉浸在自我世界却具有保龄球天赋的“英勋”(李大为饰)而想将其拉拢。“哲宗”的五号助手,中间人“熙真”(李贞贤饰)的主导下一场大赌局展开。

Video
ID : 1
Format : AVC
Format/Info : Advanced Video Codec
Format profile : [email protected]
Format settings : CABAC / 4 Ref Frames
Format settings, CABAC : Yes
Format settings, ReFrames : 4 frames
Codec ID : avc1
Codec ID/Info : Advanced Video Coding
Duration : 2 h 2 min
Bit rate : 2 500 kb/s
Width : 1 920 pixels
Height : 800 pixels
Display aspect ratio : 2.40:1
Frame rate mode : Constant
Frame rate : 23.976 (23976/1000) FPS
Color space : YUV
Chroma subsampling : 4:2:0
Bit depth : 8 bits
Scan type : Progressive
Bits/(Pixel*Frame) : 0.068
Stream size : 2.13 GiB (92%)
Writing library : x264 core 152 r2851M ba24899
Encoding settings : cabac=1 / ref=4 / deblock=1:-1:-1 / analyse=0x3:0x113 / me=umh / subme=9 / psy=1 / psy_rd=1.00:0.15 / mixed_ref=1 / me_range=24 / chroma_me=1 / trellis=2 / 8x8dct=1 / cqm=0 / deadzone=21,11 / fast_pskip=1 / chroma_qp_offset=-3 / threads=16 / lookahead_threads=4 / sliced_threads=0 / nr=0 / decimate=1 / interlaced=0 / bluray_compat=0 / constrained_intra=0 / bframes=3 / b_pyramid=2 / b_adapt=2 / b_bias=0 / direct=3 / weightb=1 / open_gop=0 / weightp=2 / keyint=250 / keyint_min=25 / scenecut=40 / intra_refresh=0 / rc_lookahead=50 / rc=2pass / mbtree=1 / bitrate=2500 / ratetol=1.0 / qcomp=0.60 / qpmin=0 / qpmax=69 / qpstep=4 / cplxblur=20.0 / qblur=0.5 / vbv_maxrate=31250 / vbv_bufsize=31250 / nal_hrd=none / filler=0 / ip_ratio=1.40 / aq=3:1.00
Encoded date : UTC 2019-05-30 20:15:05
Tagged date : UTC 2019-05-30 20:15:05
Codec configuration box : avcC

Audio
ID : 2
Format : AAC LC
Format/Info : Advanced Audio Codec Low Complexity
Codec ID : mp4a-40-2
Duration : 2 h 2 min
Bit rate mode : Constant
Bit rate : 224 kb/s
Channel(s) : 2 channels
Channel layout : L R
Sampling rate : 48.0 kHz
Frame rate : 46.875 FPS (1024 SPF)
Compression mode : Lossy
Stream size : 196 MiB (8%)
Language : Korean
Default : Yes
Alternate group : 1
Encoded date : UTC 2019-05-30 20:15:05
Tagged date : UTC 2019-05-30 20:15:05





2 个附件 售价 大小 下载 时间

Split.2016.KOREAN.1080p.WEBRip.x264-RARBG.torrent 0 金币 23.87K 434 次 3月前

Pride.2007.1080p.WEBRip.x264-RARBG.torrent 0 金币 21.38K 266 次 3月前

#1楼
发帖时间:2019-05-31 08:38:36   |   回复数:2
911degrees
隐世仙人♂
非常感谢,谢谢分享
3月前 #2楼
liyouchai
隐世仙人♂
谢谢楼主分享资源
3月前 #3楼
游客组