conanlcg
超级版主

[2014] [其他] [喜剧] [BD-720P] 阿斯特里克斯历险记:诸神之宫殿 Asterix.and.Obelix.Mansion.of.the.Gods.2014.DUBBED.720p.BluRay.x

-->

帖子完整标题:阿斯特里克斯历险记:诸神之宫殿 Asterix.and.Obelix.Mansion.of.the.Gods.2014.DUBBED.720p.BluRay.x264-GHOULS 2.64GB




◎译  名 阿斯特里克斯历险记:诸神之宫殿 / Asterix:The Mansions of the Gods / 高卢英雄历险记:诸神之神殿
◎片  名 Astérix: Le domaine des dieux
◎年  代 2014
◎产  地 法国 / 比利时
◎类  别 喜剧 / 动画 / 冒险
◎语  言 法语
◎上映日期 2014-11-26(法国)
◎IMDb评分 6.9/10 from 9707 users
◎IMDb链接 http://www.imdb.com/title/tt3759416
◎豆瓣评分 7.5/10 from 2233 users
◎豆瓣链接 https://movie.douban.com/subject/25917236/
◎片  长 86分钟
◎导  演 Alexandre Astier
◎编  剧 Louis Clichy
◎主  演 阿兰·夏巴 Alain Chabat
      罗兰·拉斐特 Laurent Lafitte
      热拉尔丁·纳卡什 Géraldine Nakache


◎标  签 动画 | 法国 | 喜剧 | 法国电影 | 2014 | 动画片 | 搞笑 | 电影

◎简  介

  凯撒为了淡化阿斯特里克斯村庄的团结,削弱当地的习俗,在高卢附近建立一个度假村。村民前方百计破坏这项工程,首先是神奇的森林补植,然后在罗马人搬入新夏后吓跑他们,最后又将刚迁入的罗马兵团痛打

Video
ID : 1
Format : AVC
Format/Info : Advanced Video Codec
Format profile : [email protected]
Format settings : CABAC / 9 Ref Frames
Format settings, CABAC : Yes
Format settings, ReFrames : 9 frames
Codec ID : V_MPEG4/ISO/AVC
Duration : 1 h 25 min
Bit rate : 2 906 kb/s
Width : 1 280 pixels
Height : 696 pixels
Display aspect ratio : 1.85:1
Frame rate mode : Constant
Frame rate : 23.976 (24000/1001) FPS
Color space : YUV
Chroma subsampling : 4:2:0
Bit depth : 8 bits
Scan type : Progressive
Bits/(Pixel*Frame) : 0.136
Stream size : 1.74 GiB (66%)
Writing library : x264 core 157 r2969 d4099dd
Encoding settings : cabac=1 / ref=9 / deblock=1:2:1 / analyse=0x3:0x133 / me=umh / subme=9 / psy=1 / psy_rd=1.00:0.00 / mixed_ref=1 / me_range=24 / chroma_me=1 / trellis=1 / 8x8dct=1 / cqm=0 / deadzone=21,11 / fast_pskip=0 / chroma_qp_offset=-2 / threads=22 / lookahead_threads=3 / sliced_threads=0 / nr=0 / decimate=1 / interlaced=0 / bluray_compat=0 / constrained_intra=0 / bframes=8 / b_pyramid=2 / b_adapt=2 / b_bias=0 / direct=3 / weightb=1 / open_gop=0 / weightp=2 / keyint=250 / keyint_min=23 / scenecut=40 / intra_refresh=0 / rc_lookahead=60 / rc=2pass / mbtree=1 / bitrate=2906 / ratetol=1.0 / qcomp=0.60 / qpmin=0 / qpmax=69 / qpstep=4 / cplxblur=20.0 / qblur=0.5 / vbv_maxrate=62500 / vbv_bufsize=78125 / nal_hrd=none / filler=0 / ip_ratio=1.40 / aq=1:1.00
Default : Yes
Forced : No

Audio
ID : 2
Format : DTS
Format/Info : Digital Theater Systems
Codec ID : A_DTS
Duration : 1 h 25 min
Bit rate mode : Constant
Bit rate : 1 509 kb/s
Channel(s) : 6 channels
Channel layout : C L R Ls Rs LFE
Sampling rate : 48.0 kHz
Frame rate : 93.750 FPS (512 SPF)
Bit depth : 24 bits
Compression mode : Lossy
Stream size : 926 MiB (34%)
Language : English
Default : Yes
Forced : No

Menu
00:00:00.000 : en:Chapter 01
00:10:06.189 : en:Chapter 02
00:22:39.650 : en:Chapter 03
00:27:11.296 : en:Chapter 04
00:34:23.061 : en:Chapter 05
00:42:33.968 : en:Chapter 06
00:47:27.595 : en:Chapter 07
00:51:56.488 : en:Chapter 08
00:56:24.214 : en:Chapter 09
01:02:15.732 : en:Chapter 10
01:08:52.712 : en:Chapter 11
01:20:28.741 : en:Chapter 12





1 个附件 售价 大小 下载 时间

Asterix.and.Obelix.Mansion.of.the.Gods.2014.DUBBED.720p.BluRay.x264-GHOULS.torrent 0 金币 27.18K 413 次 4月前

#1楼
发帖时间:2019-06-04 00:54:10   |   回复数:2
911degrees
隐世仙人♂
非常感谢,谢谢分享
4月前 #2楼
liyouchai
隐世仙人♂
谢谢楼主分享资源
4月前 #3楼
游客组