conanlcg
超级版主

[2011] [欧美] [剧情] [BD-1080P] 遇见莫妮卡/一月小姐 Meet.Monica.Velour.2010.1080p.BluRay.x264-Japhson 6.55GB

-->

帖子完整标题:遇见莫妮卡/一月小姐 Meet.Monica.Velour.2010.1080p.BluRay.x264-Japhson 6.55GB




◎译  名 遇见莫妮卡 / 一月小姐
◎片  名 Meet Monica Velour
◎年  代 2011
◎产  地 美国
◎类  别 剧情 / 喜剧 / 爱情
◎语  言 英语
◎上映日期 2011
◎IMDb评分 5.8/10 from 2069 users
◎IMDb链接 http://www.imdb.com/title/tt1291549
◎豆瓣评分 7.1/10 from 327 users
◎豆瓣链接 https://movie.douban.com/subject/3233736/
◎导  演 Keith Bearden
◎编  剧 Keith Bearden
◎主  演 Dustin Ingram
      Jee Young Han
      Daniel Yelsky


◎标  签 美国 | 美国电影 | 爱情 | 独立 | 成长 | 剧情 | KimCattrall | 喜剧

◎简  介

  一个笨拙的男孩遇到了他最喜欢的色情女明星莫妮卡,莫妮卡在80年代曾红极一时,现在却是个单身母亲,两人意外地开始了一段友谊。
现年54岁的金凯特罗(Kim Cattrall),在三年前的访问中曾如此告诉《星期天泰晤士报/Sunday Time》:“我看起来就如同我真实年龄,我再也不想成为20岁,或是30、40岁。”“我眉毛下方有一个很深的皱纹,所以我注射肉度杆菌来避免,不过我很害怕整形手术,因为我并不想站在镜子前面,而认不得镜中的自己。”
我想金凯特罗(Kim Cattrall)是说真的,因为在她即将于今年4月8日在美国上映的新片《Meet Monica Velour》中,金凯特罗(Kim Cattrall)牺牲色相,不但可以把自己增胖得极为痴肥,饰演一位过气情色女星的她,看来还真的是既落魄又老态百出。
在《Meet Monica Velour》中,金凯特罗(Kim Cattrall)扮演一个年轻人儿时的梦中情人Monica Velour,但等到这位年轻人满心期待亲眼目睹偶像时,却只能用‘傻眼’二字形容。

Video
ID : 1
Format : AVC
Format/Info : Advanced Video Codec
Format profile : [email protected]
Format settings, CABAC : Yes
Format settings, ReFrames : 4 frames
Muxing mode : Header stripping
Codec ID : V_MPEG4/ISO/AVC
Duration : 1h 37mn
Bit rate : 8 996 Kbps
Width : 1 920 pixels
Height : 1 080 pixels
Display aspect ratio : 16:9
Frame rate mode : Constant
Frame rate : 23.976 (24000/1001) fps
Color space : YUV
Chroma subsampling : 4:2:0
Bit depth : 8 bits
Scan type : Progressive
Bits/(Pixel*Frame) : 0.181
Stream size : 5.98 GiB (91%)
Writing library : x264 core 116 r2044 392e762
Encoding settings : cabac=1 / ref=4 / deblock=1:-1:-1 / analyse=0x3:0x113 / me=umh / subme=7 / psy=1 / psy_rd=1.00:0.00 / mixed_ref=1 / me_range=16 / chroma_me=1 / trellis=1 / 8x8dct=1 / cqm=0 / deadzone=21,11 / fast_pskip=1 / chroma_qp_offset=-2 / threads=12 / sliced_threads=0 / nr=0 / decimate=1 / interlaced=0 / bluray_compat=0 / constrained_intra=0 / bframes=3 / b_pyramid=2 / b_adapt=2 / b_bias=0 / direct=3 / weightb=1 / open_gop=0 / weightp=2 / keyint=250 / keyint_min=23 / scenecut=40 / intra_refresh=0 / rc_lookahead=40 / rc=2pass / mbtree=1 / bitrate=8996 / ratetol=1.0 / qcomp=0.60 / qpmin=0 / qpmax=69 / qpstep=4 / cplxblur=20.0 / qblur=0.5 / vbv_maxrate=50000 / vbv_bufsize=50000 / nal_hrd=none / ip_ratio=1.40 / aq=1:1.00
Language : English
Default : Yes
Forced : Yes

Audio
ID : 2
Format : AC-3
Format/Info : Audio Coding 3
Mode extension : CM (complete main)
Format settings, Endianness : Big
Muxing mode : Header stripping
Codec ID : A_AC3
Duration : 1h 37mn
Bit rate mode : Constant
Bit rate : 640 Kbps
Channel(s) : 6 channels
Channel positions : Front: L C R, Side: L R, LFE
Sampling rate : 48.0 KHz
Frame rate : 31.250 fps (1536 spf)
Compression mode : Lossy
Stream size : 445 MiB (7%)
Language : English
Default : Yes
Forced : Yes





1 个附件 售价 大小 下载 时间

Meet.Monica.Velour.2010.1080p.BluRay.x264-Japhson.torrent 0 金币 66.03K 448 次 2月前

#1楼
发帖时间:2019-06-05 05:55:01   |   回复数:2
911degrees
隐世仙人♂
非常感谢,谢谢分享
2月前 #2楼
liyouchai
隐世仙人♂
谢谢楼主分享资源
2月前 #3楼
游客组