conanlcg
超级版主

[2011] [欧美] [剧情] [BD-1080P] 佣军密令/雇佣军 Mercenaries.2011.1080p.BluRay.x264-THUGLiNE 7.94GB

-->

帖子完整标题:佣军密令/雇佣军 Mercenaries.2011.1080p.BluRay.x264-THUGLiNE 7.94GB




◎译  名 佣军密令 / 雇佣军
◎片  名 Mercenaries
◎年  代 2011
◎产  地 英国
◎类  别 剧情 / 动作
◎语  言 英语
◎上映日期 2012-01-27
◎IMDb评分 3.5/10 from 1092 users
◎IMDb链接 http://www.imdb.com/title/tt1728979
◎豆瓣评分 3.7/10 from 305 users
◎豆瓣链接 https://movie.douban.com/subject/7065175/
◎片  长 97分钟
◎导  演 Paris Leonti
◎编  剧 Paris Leonti
◎主  演 Robert Fucilla


◎标  签 战争 | 动作 | 英国 | 2011 | 烂片 | 英国电影 | 电影 | 剧情

◎简  介

  安迪以前是一名军人,后来变成了雇佣军,在巴尔干地区军事政变后被派往拯救美国大使.....

Video
ID : 1
Format : AVC
Format/Info : Advanced Video Codec
Format profile : [email protected]
Format settings : CABAC / 5 Ref Frames
Format settings, CABAC : Yes
Format settings, ReFrames : 5 frames
Codec ID : V_MPEG4/ISO/AVC
Duration : 1 h 36 min
Bit rate : 10.2 Mb/s
Width : 1 920 pixels
Height : 816 pixels
Display aspect ratio : 2.35:1
Frame rate mode : Constant
Frame rate : 24.000 FPS
Color space : YUV
Chroma subsampling : 4:2:0
Bit depth : 8 bits
Scan type : Progressive
Bits/(Pixel*Frame) : 0.272
Stream size : 6.76 GiB (85%)
Title : MERCANARIES - 1080P - THUGLINE
Writing library : x264 core 120 r2120 0c7dab9
Encoding settings : cabac=1 / ref=5 / deblock=1:0:0 / analyse=0x3:0x133 / me=umh / subme=7 / psy=1 / psy_rd=1.00:0.00 / mixed_ref=1 / me_range=16 / chroma_me=1 / trellis=1 / 8x8dct=1 / cqm=0 / deadzone=21,11 / fast_pskip=0 / chroma_qp_offset=-2 / threads=12 / sliced_threads=0 / nr=0 / decimate=1 / interlaced=0 / bluray_compat=0 / constrained_intra=0 / bframes=3 / b_pyramid=2 / b_adapt=1 / b_bias=0 / direct=1 / weightb=1 / open_gop=0 / weightp=1 / keyint=250 / keyint_min=24 / scenecut=40 / intra_refresh=0 / rc_lookahead=40 / rc=2pass / mbtree=1 / bitrate=10230 / ratetol=1.0 / qcomp=0.60 / qpmin=0 / qpmax=69 / qpstep=4 / cplxblur=20.0 / qblur=0.5 / ip_ratio=1.40 / aq=1:1.00
Default : Yes
Forced : Yes

Audio
ID : 2
Format : DTS
Format/Info : Digital Theater Systems
Codec ID : A_DTS
Duration : 1 h 36 min
Bit rate mode : Constant
Bit rate : 1 509 kb/s
Channel(s) : 6 channels
Channel positions : Front: L C R, Side: L R, LFE
Sampling rate : 48.0 kHz
Frame rate : 93.750 FPS (512 SPF)
Bit depth : 24 bits
Compression mode : Lossy
Stream size : 1.02 GiB (13%)
Title : ENG - DTS
Language : English
Default : Yes
Forced : Yes

Menu
00:00:00.000 : en:00:00:00.000
00:08:57.958 : en:00:08:57.958
00:18:14.250 : en:00:18:14.250
00:24:20.417 : en:00:24:20.417
00:33:44.833 : en:00:33:44.833
00:43:04.333 : en:00:43:04.333
00:52:00.958 : en:00:52:00.958
01:00:53.667 : en:01:00:53.667
01:10:04.375 : en:01:10:04.375
01:15:43.750 : en:01:15:43.750
01:24:01.875 : en:01:24:01.875
01:33:45.542 : en:01:33:45.542





1 个附件 售价 大小 下载 时间

Mercenaries.2011.1080p.BluRay.x264-THUGLiNE.torrent 0 金币 79.90K 455 次 4月前

#1楼
发帖时间:2019-06-05 18:39:27   |   回复数:3
tanchoohoon
武林盟主
感谢楼主的无私分享
4月前 #2楼
liyouchai
隐世仙人♂
谢谢楼主分享资源
4月前 #3楼
911degrees
隐世仙人♂
非常感谢,谢谢分享
4月前 #4楼
游客组