conanlcg
超级版主

[2011] [欧美] [动作] [4K-原盘] 速度与激情5 Fast.Five.2011.EXTENDED.2160p.BluRay.REMUX.HEVC.DTS-X.7.1-FGT 50.27GB

-->

帖子完整标题:速度与激情5 Fast.Five.2011.EXTENDED.2160p.BluRay.REMUX.HEVC.DTS-X.7.1-FGT 50.27GB




◎译  名 速度与激情5 / Fast & Furious 2 / Fast Five: The IMAX Experience / 狂野时速5(港) / 玩命关头5(台)
◎片  名 Fast Five
◎年  代 2011
◎产  地 美国
◎类  别 动作 / 犯罪
◎语  言 英语 / 葡萄牙语 / 西班牙语 / 意大利语 / 法语
◎上映日期 2011-04-29(美国) / 2011-05-12(中国大陆)
◎IMDb评分 7.3/10 from 329622 users
◎IMDb链接 http://www.imdb.com/title/tt1596343
◎豆瓣评分 8.4/10 from 252284 users
◎豆瓣链接 https://movie.douban.com/subject/4286017/
◎片  长 130分钟
◎导  演 林诣彬 Justin Lin
◎编  剧 克里斯·摩根 Chris Morgan / 盖瑞·斯科特·汤普森 Gary Scott Thompson
◎主  演 范·迪塞尔 Vin Diesel
      保罗·沃克 Paul Walker
      乔丹娜·布鲁斯特 Jordana Brewster
      泰瑞斯·吉布森 Tyrese Gibson
      卢达克里斯 Ludacris
      马特·斯查尔兹 Matt Schulze
      姜成镐 Sung Kang
      盖尔·加朵 Gal Gadot
      特戈·卡尔德隆 Tego Calderon
      唐·奥马尔 Don Omar
      乔昆姆·德·阿尔梅达 Joaquim de Almeida
      道恩·强森 Dwayne Johnson
      埃尔莎·帕塔奇 Elsa Pataky
      迈克尔·厄尔比 Michael Irby
      费尔南多·钱 Fernando Chien
      阿里米·巴尔拉德 Alimi Ballard
      约戈·康斯坦丁 Yorgo Constantine
      吉奥夫·米德 Geoff Meed
      Joseph Melendez
      马克·希克斯 Mark Hicks
      Corey Michael Eubanks
      小路易斯·达·席尔瓦 Luis Da Silva Jr.
      肯特·绍克内克 Kent Shocknek
      莎伦泰 Sharon Tay
      埃莱娜·卡多纳 Hélène Cardona
      Amanda Salinas
      Benjamin Easterday
      伊娃·门德斯 Eva Mendes
      杰瑞德·莫泽 Jared Moser
      米歇尔·罗德里格兹 Michelle Rodriguez
      布赖恩·泰斯特 Brian Tester
      伊万·J·托雷斯·拉桑塔 Iván J. Torres Lasanta


◎标  签 动作 | 美国 | 飙车 | 赛车 | 速度 | 犯罪 | 2011 | 暴力

◎简  介

  蛰伏2年之后,多米尼克(范?迪塞尔 Vin Diesel饰)与布莱恩(保罗?沃克 Paul Walker 饰)再度联手把火车中的神秘豪车盗走,遭到了警察和黑帮分子的火线追杀。布莱恩和米亚(乔丹娜?布鲁斯特 Jordana Brewster 饰)到里约寻找援兵,并与多米会和。为了寻找多米等人的下落,FBI王牌探员卢克(“岩石”道恩?强森 Dwayne Johnson饰)挺身而出,组成精英部队,追查来到里约。他雇佣了丧夫的美丽女警艾莲娜(埃尔莎?帕塔奇 Elsa Pataky 饰),一同寻找多米。与此同时,里约的地头蛇也对这些不速之客开火。三股势力开始相互缠斗。
期间,因米亚怀孕,布莱恩决定陪她一起逃亡,所以多米只得依靠昔日老友探寻新车的秘密。在罗曼、韩等人的帮助下,多米终于找到了这辆车的秘密——芯片,并由此揭开了其中隐藏的一个不可告人的计划……

◎获奖情况

  第17届美国评论家选择电影奖(2012)
  最佳动作片(提名)

  第11届凤凰城影评人协会奖(2011)
  最佳特技表演(提名)

  第13届美国青少年选择奖(2011)
  最佳动作片
  最佳动作片男演员(提名) 范·迪塞尔 / 保罗·沃克
  最佳动作片女演员(提名) 乔丹娜·布鲁斯特



Video
ID : 1
Format : HEVC
Format/Info : High Efficiency Video Coding
Commercial name : HDR10
Format profile : Main [email protected]@High
Codec ID : V_MPEGH/ISO/HEVC
Duration : 2 h 11 min
Bit rate : 48.8 Mb/s
Width : 3 840 pixels
Height : 2 160 pixels
Display aspect ratio : 16:9
Frame rate mode : Constant
Frame rate : 23.976 (24000/1001) FPS
Color space : YUV
Chroma subsampling : 4:2:0 (Type 2)
Bit depth : 10 bits
Bits/(Pixel*Frame) : 0.245
Stream size : 44.8 GiB (89%)
Title : Fast.Five.2011.EXTENDED.2160p.BluRay.REMUX.HEVC.DTS-X.7.1-FGT
Writing library : ATEME Titan File 3.9.0 (4.9.0.0)
Language : English
Default : No
Forced : No
Color range : Limited
Color primaries : BT.2020
Transfer characteristics : PQ
Matrix coefficients : BT.2020 non-constant
Mastering display color primaries : Display P3
Mastering display luminance : min: 0.0050 cd/m2, max: 1000 cd/m2
Maximum Content Light Level : 997 cd/m2
Maximum Frame-Average Light Level : 344 cd/m2

Audio #1
ID : 2
Format : DTS XLL X
Format/Info : Digital Theater Systems
Commercial name : DTS-HD Master Audio
Codec ID : A_DTS
Duration : 2 h 11 min
Bit rate mode : Variable
Bit rate : 4 119 kb/s
Channel(s) : 8 channels
Channel(s)_Original : Object Based
Channel layout : Object Based
Sampling rate : 48.0 kHz
Frame rate : 93.750 FPS (512 SPF)
Bit depth : 24 bits
Stream size : 3.79 GiB (8%)
Title : Fast.Five.2011.EXTENDED.2160p.BluRay.REMUX.HEVC.DTS-X.7.1-FGT
Language : English
Default : Yes
Forced : No

Audio #2
ID : 3
Format : DTS
Format/Info : Digital Theater Systems
Codec ID : A_DTS
Duration : 2 h 11 min
Bit rate mode : Constant
Bit rate : 768 kb/s
Channel(s) : 6 channels
Channel layout : C L R Ls Rs LFE
Sampling rate : 48.0 kHz
Frame rate : 93.750 FPS (512 SPF)
Bit depth : 24 bits
Compression mode : Lossy
Stream size : 723 MiB (1%)
Title : Fast.Five.2011.EXTENDED.2160p.BluRay.REMUX.HEVC.DTS-X.7.1-FGT
Language : French
Default : No
Forced : No

Audio #3
ID : 4
Format : DTS
Format/Info : Digital Theater Systems
Codec ID : A_DTS
Duration : 2 h 11 min
Bit rate mode : Constant
Bit rate : 768 kb/s
Channel(s) : 6 channels
Channel layout : C L R Ls Rs LFE
Sampling rate : 48.0 kHz
Frame rate : 93.750 FPS (512 SPF)
Bit depth : 24 bits
Compression mode : Lossy
Stream size : 723 MiB (1%)
Title : Fast.Five.2011.EXTENDED.2160p.BluRay.REMUX.HEVC.DTS-X.7.1-FGT
Language : Spanish
Default : No
Forced : No

Audio #4
ID : 5
Format : AC-3
Format/Info : Audio Coding 3
Commercial name : Dolby Digital
Codec ID : A_AC3
Duration : 2 h 11 min
Bit rate mode : Constant
Bit rate : 192 kb/s
Channel(s) : 2 channels
Channel layout : L R
Sampling rate : 48.0 kHz
Frame rate : 31.250 FPS (1536 SPF)
Bit depth : 16 bits
Compression mode : Lossy
Stream size : 181 MiB (0%)
Title : Fast.Five.2011.EXTENDED.2160p.BluRay.REMUX.HEVC.DTS-X.7.1-FGT
Language : English
Service kind : Complete Main
Default : No
Forced : No

Text #1
ID : 6
Format : UTF-8
Codec ID : S_TEXT/UTF8
Codec ID/Info : UTF-8 Plain Text
Duration : 2 h 4 min
Bit rate : 38 b/s
Count of elements : 1147
Stream size : 35.5 KiB (0%)
Title : English-SRT
Language : English
Default : Yes
Forced : No

Text #2
ID : 7
Format : PGS
Muxing mode : zlib
Codec ID : S_HDMV/PGS
Codec ID/Info : Picture based subtitle format used on BDs/HD-DVDs
Duration : 2 h 4 min
Bit rate : 27.8 kb/s
Count of elements : 2546
Stream size : 24.8 MiB (0%)
Title : English-PGS
Language : English
Default : No
Forced : No

Text #3
ID : 8
Format : PGS
Muxing mode : zlib
Codec ID : S_HDMV/PGS
Codec ID/Info : Picture based subtitle format used on BDs/HD-DVDs
Duration : 2 h 5 min
Bit rate : 27.2 kb/s
Count of elements : 2536
Stream size : 24.4 MiB (0%)
Title : French-PGS
Language : French
Default : No
Forced : No

Text #4
ID : 9
Format : PGS
Muxing mode : zlib
Codec ID : S_HDMV/PGS
Codec ID/Info : Picture based subtitle format used on BDs/HD-DVDs
Duration : 2 h 5 min
Bit rate : 23.3 kb/s
Count of elements : 2542
Stream size : 20.9 MiB (0%)
Title : Spanish-PGS
Language : Spanish
Default : No
Forced : No

Text #5
ID : 10
Format : PGS
Muxing mode : zlib
Codec ID : S_HDMV/PGS
Codec ID/Info : Picture based subtitle format used on BDs/HD-DVDs
Duration : 2 h 5 min
Bit rate : 73.0 kb/s
Count of elements : 4566
Stream size : 65.8 MiB (0%)
Title : English-COMMENTARY-PGS
Language : English
Default : No
Forced : No

Text #6
ID : 11
Format : PGS
Muxing mode : zlib
Codec ID : S_HDMV/PGS
Codec ID/Info : Picture based subtitle format used on BDs/HD-DVDs
Duration : 2 h 1 min
Bit rate : 2 722 b/s
Count of elements : 262
Stream size : 2.36 MiB (0%)
Title : French-COMMENTARY-PGS
Language : French
Default : No
Forced : No

Text #7
ID : 12
Format : PGS
Muxing mode : zlib
Codec ID : S_HDMV/PGS
Codec ID/Info : Picture based subtitle format used on BDs/HD-DVDs
Duration : 2 h 1 min
Bit rate : 1 922 b/s
Count of elements : 212
Stream size : 1.67 MiB (0%)
Title : Spanish-COMMENTARY-PGS
Language : Spanish
Default : No
Forced : No

Menu
00:00:00.000 : en:Chapter 01
00:07:45.673 : en:Chapter 02
00:17:29.423 : en:Chapter 03
00:23:01.797 : en:Chapter 04
00:28:21.533 : en:Chapter 05
00:35:05.144 : en:Chapter 06
00:40:55.661 : en:Chapter 07
00:48:51.261 : en:Chapter 08
00:55:29.993 : en:Chapter 09
01:04:07.552 : en:Chapter 10
01:11:41.964 : en:Chapter 11
01:19:23.467 : en:Chapter 12
01:23:33.800 : en:Chapter 13
01:28:56.331 : en:Chapter 14
01:32:57.154 : en:Chapter 15
01:40:27.104 : en:Chapter 16
01:48:14.488 : en:Chapter 17
01:56:03.915 : en:Chapter 18
02:00:29.013 : en:Chapter 19
02:04:38.179 : en:Chapter 20





1 个附件 售价 大小 下载 时间

Fast.Five.2011.EXTENDED.2160p.BluRay.REMUX.HEVC.DTS-X.7.1-FGT.torrent 0 金币 126.23K 1617 次 3月前

#1楼
发帖时间:2019-06-06 05:37:35   |   回复数:3
911degrees
隐世仙人♂
非常感谢,谢谢分享
3月前 #2楼
liyouchai
隐世仙人♂
谢谢楼主分享资源
3月前 #3楼
tanchoohoon
武林盟主
感谢楼主的无私分享
3月前 #4楼
游客组