conanlcg
超级版主

[2011] [欧美] [剧情] [BD-1080P] 总统杀局/三月十五日 The.Ides.Of.March.2011.1080p.BluRay.x264-SPARKS 7.64GB

-->

帖子完整标题:总统杀局/三月十五日 The.Ides.Of.March.2011.1080p.BluRay.x264-SPARKS 7.64GB




◎译  名 总统杀局 / 三月十五日 / 选战风云(台 / 港)
◎片  名 The Ides of March
◎年  代 2011
◎产  地 美国
◎类  别 剧情
◎语  言 英语
◎上映日期 2011-10-07(美国)
◎IMDb评分 7.1/10 from 207378 users
◎IMDb链接 http://www.imdb.com/title/tt1124035
◎豆瓣评分 7.0/10 from 26827 users
◎豆瓣链接 https://movie.douban.com/subject/3089571/
◎片  长 101分钟
◎导  演 乔治·克鲁尼 George Clooney
◎编  剧 乔治·克鲁尼 George Clooney / 格兰特·赫斯洛夫 Grant Heslov / 鲍尔·威利蒙 Beau Willimon
◎主  演 瑞恩·高斯林 Ryan Gosling
      乔治·克鲁尼 George Clooney
      菲利普·塞默·霍夫曼 Philip Seymour Hoffman
      保罗·吉亚玛提 Paul Giamatti
      埃文·蕾切尔·伍德 Evan Rachel Wood
      玛丽莎·托梅 Marisa Tomei


◎标  签 政治 | 美国 | RyanGosling | 乔治·克鲁尼 | 剧情 | 瑞恩·高斯林 | 人性 | EvanRachelWood

◎简  介

  美国总统大选进入白热化阶段,两位候选人在之前的得票数旗鼓相当。距离俄亥俄州的初选还有一周时间,两人都把此州当做具有决定性意义的阵地,开始明争暗斗。候选人之一莫里斯(乔治·克鲁尼 George Clooney 饰)竞选团队的二号人物斯蒂芬(瑞恩·高斯林 Ryan Gosling 饰)年轻有为,此时遭到另一位候选人竞选团队的首脑汤姆·达菲(保罗·吉亚玛提 Paul Giamatti 饰)的挖角,但斯蒂芬对莫里斯忠心耿耿,并不为所动。另一方面,斯蒂芬深深为新来的实习生莫莉(埃文·蕾切尔·伍德 Evan Rachel Wood 饰)吸引,两人迅速打得火热。
不料,泰晤士报的记者艾达(玛丽莎·托梅 Marisa Tomei 饰)得知了斯蒂芬与汤姆的会面,以此要挟斯蒂芬透露政选内幕。焦头烂额的斯蒂芬又在与莫莉的交往中发现了一个惊人的秘密……

◎获奖情况

  第84届奥斯卡金像奖(2012)
  最佳改编剧本(提名) 乔治·克鲁尼 / 鲍尔·威利蒙 / 格兰特·赫斯洛夫

  第68届威尼斯电影节(2011)
  金狮奖(提名) 乔治·克鲁尼
  布赖恩奖 乔治·克鲁尼

  第69届金球奖(2012)
  电影类 最佳剧情片(提名)
  电影类 最佳导演(提名) 乔治·克鲁尼
  电影类 剧情片最佳男主角(提名) 瑞恩·高斯林
  电影类 最佳编剧(提名) 乔治·克鲁尼 / 鲍尔·威利蒙 / 格兰特·赫斯洛夫

  第56届意大利大卫奖(2012)
  最佳外语片(提名) 乔治·克鲁尼

  第17届美国评论家选择电影奖(2012)
  最佳群戏(提名)



Video
ID : 1
Format : AVC
Format/Info : Advanced Video Codec
Format profile : [email protected]
Format settings, CABAC : Yes
Format settings, ReFrames : 5 frames
Muxing mode : Header stripping
Codec ID : V_MPEG4/ISO/AVC
Duration : 1 h 41 min
Bit rate : 9 311 kb/s
Width : 1 920 pixels
Height : 800 pixels
Display aspect ratio : 2.40:1
Frame rate mode : Constant
Frame rate : 23.976 FPS
Color space : YUV
Chroma subsampling : 4:2:0
Bit depth : 8 bits
Scan type : Progressive
Bits/(Pixel*Frame) : 0.253
Stream size : 6.42 GiB (84%)
Writing library : x264 core 120 r2120 0c7dab9
Encoding settings : cabac=1 / ref=5 / deblock=1:0:0 / analyse=0x3:0x133 / me=umh / subme=7 / psy=1 / psy_rd=1.00:0.00 / mixed_ref=1 / me_range=16 / chroma_me=1 / trellis=1 / 8x8dct=1 / cqm=0 / deadzone=21,11 / fast_pskip=0 / chroma_qp_offset=-2 / threads=12 / sliced_threads=0 / nr=0 / decimate=1 / interlaced=0 / bluray_compat=0 / constrained_intra=0 / bframes=3 / b_pyramid=2 / b_adapt=1 / b_bias=0 / direct=1 / weightb=1 / open_gop=0 / weightp=2 / keyint=250 / keyint_min=23 / scenecut=40 / intra_refresh=0 / rc_lookahead=40 / rc=2pass / mbtree=1 / bitrate=9311 / ratetol=1.0 / qcomp=0.60 / qpmin=0 / qpmax=69 / qpstep=4 / cplxblur=20.0 / qblur=0.5 / ip_ratio=1.40 / aq=1:1.00
Language : English
Default : Yes
Forced : No

Audio
ID : 2
Format : DTS
Format/Info : Digital Theater Systems
Mode : 16
Format settings, Endianness : Big
Muxing mode : Header stripping
Codec ID : A_DTS
Duration : 1 h 41 min
Bit rate mode : Constant
Bit rate : 1 509 kb/s
Channel(s) : 6 channels
Channel positions : Front: L C R, Side: L R, LFE
Sampling rate : 48.0 kHz
Frame rate : 93.750 FPS (512 spf)
Bit depth : 24 bits
Compression mode : Lossy
Stream size : 1.07 GiB (14%)
Default : Yes
Forced : No





1 个附件 售价 大小 下载 时间

The.Ides.Of.March.2011.1080p.BluRay.x264-SPARKS.torrent 0 金币 76.91K 784 次 1月前

#1楼
发帖时间:2019-06-08 05:45:10   |   回复数:2
911degrees
隐世仙人♂
非常感谢,谢谢分享
1月前 #2楼
liyouchai
隐世仙人♂
谢谢楼主分享资源
1月前 #3楼
游客组