conanlcg
超级版主

[2011] [其他] [剧情] [BD-1080P] 艺术家/大艺术家 The.Artist.2011.1080p.BluRay.x264-FilmHD 7.65GB

-->

帖子完整标题:艺术家/大艺术家 The.Artist.2011.1080p.BluRay.x264-FilmHD 7.65GB




◎译  名 艺术家 / 大艺术家(台) / 星光梦里人(港)
◎片  名 The Artist
◎年  代 2011
◎产  地 法国 / 比利时 / 美国
◎类  别 剧情 / 喜剧 / 爱情
◎语  言 英语 / 法语
◎上映日期 2011-10-12(法国) / 2012-12-28(中国大陆)
◎IMDb评分 7.9/10 from 217126 users
◎IMDb链接 http://www.imdb.com/title/tt1655442
◎豆瓣评分 8.4/10 from 81912 users
◎豆瓣链接 https://movie.douban.com/subject/6097775/
◎片  长 100分钟
◎导  演 迈克尔·哈扎纳维希乌斯 Michel Hazanavicius
◎编  剧 迈克尔·哈扎纳维希乌斯 Michel Hazanavicius
◎主  演 让·杜雅尔丹 Jean Dujardin
      贝热尼丝·贝乔 Bérénice Bejo
      约翰·古德曼 John Goodman
      詹姆斯·克伦威尔 James Cromwell
      比茜·图诺克 Bitsie Tulloch
      佩内洛普·安·米勒 Penelope Ann Miller
      马尔科姆·麦克道威尔 Malcolm McDowell
      小狗乌吉 Uggie


◎标  签 默片 | 黑白 | 法国电影 | 爱情 | 奥斯卡 | 剧情 | 喜剧 | 经典

◎简  介

  1927年,乔治·瓦伦丁(让·杜雅尔丹 Jean Dujardin 饰),是默片的最佳男主角。每次他在舞台上,都会逗得观众捧腹大笑。他的爱犬是黄金配角,其他女演员只有靠边站的份。一次,面对媒体采访,他无意中邂逅了一位表现欲超强的女子佩皮·米勒(贝热尼丝·贝乔 Béré nice Bejo 饰),尽管后者抢镜出风头,但是他还是儒雅以待。不过,这则头条新闻却压过了他的新戏,老板极为不满,老婆也醋性大发。后来,佩皮闯荡好莱坞,恰好与乔治重逢,这令他心神不宁,演戏频频NG。后来,与老板闹僵的乔治,决定自立门户,自编自导自演。与此同时,佩皮却借助有声电影的契机迅速蹿红,成为了首屈一指的明星。最终,他的默片与她的有声片档期撞车,一场在新与旧、情感与票房的争夺战拉开序幕……
本片获69届金球奖最佳音乐片/喜剧片,让·杜雅尔丹获最佳音乐片/喜剧片影帝,及 64届戛纳影帝。

◎获奖情况

  第84届奥斯卡金像奖(2012)
  最佳影片 托马斯·朗曼
  最佳导演 米歇尔·阿扎纳维西于斯
  最佳男主角 让·杜雅尔丹
  最佳女配角(提名) 贝热尼丝·贝乔
  最佳原创剧本(提名) 米歇尔·阿扎纳维西于斯
  最佳摄影(提名) Guillaume Schiffman
  最佳剪辑(提名) 米歇尔·阿扎纳维西于斯 / Anne-Sophie Bion
  最佳艺术指导(提名) Laurence Bennett / Robert Gould
  最佳服装设计 马克·布里奇斯
  最佳原创配乐 路德维克·伯斯

  第64届戛纳电影节(2011)
  主竞赛单元 金棕榈奖(提名) 米歇尔·阿扎纳维西于斯
  主竞赛单元 最佳男演员 让·杜雅尔丹

  第69届金球奖(2012)
  电影类 最佳音乐/喜剧片
  电影类 最佳导演(提名) 米歇尔·阿扎纳维西于斯
  电影类 音乐/喜剧片最佳男主角 让·杜雅尔丹
  电影类 最佳女配角(提名) 贝热尼丝·贝乔
  电影类 最佳编剧(提名) 米歇尔·阿扎纳维西于斯
  电影类 最佳原创配乐 路德维克·伯斯

  第25届欧洲电影奖(2012)
  观众选择奖(提名) 米歇尔·阿扎纳维西于斯

  第24届欧洲电影奖(2011)
  最佳影片(提名)
  最佳男主角(提名) 让·杜雅尔丹
  最佳摄影(提名) Guillaume Schiffman
  最佳配乐 路德维克·伯斯
  最佳配乐(提名) 路德维克·伯斯

  第26届西班牙戈雅奖(2012)
  最佳欧洲电影 米歇尔·阿扎纳维西于斯

  第56届意大利大卫奖(2012)
  最佳欧洲电影(提名) 米歇尔·阿扎纳维西于斯

  第77届纽约影评人协会奖(2011)
  最佳影片
  最佳导演 米歇尔·阿扎纳维西于斯
  最佳男主角(提名) 让·杜雅尔丹

  第17届美国评论家选择电影奖(2012)
  最佳影片
  最佳导演 米歇尔·阿扎纳维西于斯
  最佳男主角(提名) 让·杜雅尔丹
  最佳女配角(提名) 贝热尼丝·贝乔
  最佳群戏(提名)
  最佳原创剧本(提名) 米歇尔·阿扎纳维西于斯
  最佳摄影(提名) Guillaume Schiffman
  最佳剪辑(提名) 米歇尔·阿扎纳维西于斯 / Anne-Sophie Bion
  最佳配乐 路德维克·伯斯
  最佳美术指导(提名) Gregory S. Hooper / Laurence Bennett
  最佳服装设计 马克·布里奇斯

  第27届美国独立精神奖(2012)
  最佳影片 托马斯·朗曼
  最佳导演 米歇尔·阿扎纳维西于斯
  最佳男主角 让·杜雅尔丹
  最佳剧本(提名) 米歇尔·阿扎纳维西于斯
  最佳摄影 Guillaume Schiffman

  第12届美国电影学会奖(2011)
  特别表彰

  第10届华盛顿影评人协会奖(2011)
  最佳影片
  最佳导演(提名) 米歇尔·阿扎纳维西于斯
  最佳男主角(提名) 让·杜雅尔丹
  最佳女配角(提名) 贝热尼丝·贝乔
  最佳原创剧本(提名) 米歇尔·阿扎纳维西于斯
  最佳摄影(提名) Guillaume Schiffman
  最佳配乐 路德维克·伯斯
  最佳艺术指导(提名) Gregory S. Hooper / Laurence Bennett

  第32届波士顿影评人协会奖(2011)
  最佳影片
  最佳导演(提名) 米歇尔·阿扎纳维西于斯
  最佳音乐 路德维克·伯斯

  第16届圣地亚哥影评人协会奖(2011)
  最佳影片
  最佳导演(提名) 米歇尔·阿扎纳维西于斯
  最佳男主角(提名) 让·杜雅尔丹
  最佳女配角(提名) 贝热尼丝·贝乔
  最佳原创剧本(提名) 米歇尔·阿扎纳维西于斯
  最佳摄影(提名) Guillaume Schiffman
  最佳剪辑(提名) 米歇尔·阿扎纳维西于斯 / Anne-Sophie Bion
  最佳配乐(提名) 路德维克·伯斯
  最佳艺术指导(提名) Laurence Bennett

  第24届芝加哥影评人协会奖(2011)
  最佳影片(提名)
  最佳导演(提名) 米歇尔·阿扎纳维西于斯
  最佳男主角(提名) 让·杜雅尔丹
  最佳原创剧本 米歇尔·阿扎纳维西于斯
  最佳原创配乐(提名) 路德维克·伯斯

  第11届凤凰城影评人协会奖(2011)
  最佳影片
  最佳导演 米歇尔·阿扎纳维西于斯
  最佳男主角 让·杜雅尔丹
  最佳女配角 贝热尼丝·贝乔
  最佳原创剧本 米歇尔·阿扎纳维西于斯
  最佳原创配乐 路德维克·伯斯
  最佳摄影 Guillaume Schiffman
  最佳剪辑 米歇尔·阿扎纳维西于斯
  最佳服装设计 马克·布里奇斯
  最佳艺术指导(提名) Laurence Bennett
  最佳新人导演 米歇尔·阿扎纳维西于斯
  十佳影片

  第20届东南影评人协会奖(2011)
  最佳导演(提名) 米歇尔·阿扎纳维西于斯
  最佳原创剧本(提名) 米歇尔·阿扎纳维西于斯
  十大佳片

  第2届豆瓣电影鑫像奖(2012)
  鑫豆单元 最佳影片(外语)(提名)
  鑫豆单元 最佳导演(外语)(提名) 米歇尔·阿扎纳维西于斯
  鑫豆单元 最佳男演员(外语)(提名) 让·杜雅尔丹



Video
ID : 1
Format : AVC
Format/Info : Advanced Video Codec
Format profile : [email protected]
Format settings : CABAC / 5 Ref Frames
Format settings, CABAC : Yes
Format settings, ReFrames : 5 frames
Codec ID : V_MPEG4/ISO/AVC
Duration : 1 h 40 min
Bit rate : 9 438 kb/s
Width : 1 440 pixels
Height : 1 080 pixels
Display aspect ratio : 4:3
Frame rate mode : Constant
Frame rate : 24.000 FPS
Color space : YUV
Chroma subsampling : 4:2:0
Bit depth : 8 bits
Scan type : Progressive
Bits/(Pixel*Frame) : 0.253
Stream size : 6.44 GiB (84%)
Writing library : x264 core 122 r2184 5c85e0a
Encoding settings : cabac=1 / ref=5 / deblock=1:0:0 / analyse=0x3:0x113 / me=umh / subme=8 / psy=1 / psy_rd=1.00:0.00 / mixed_ref=1 / me_range=16 / chroma_me=1 / trellis=1 / 8x8dct=1 / cqm=0 / deadzone=21,11 / fast_pskip=1 / chroma_qp_offset=-2 / threads=12 / sliced_threads=0 / nr=0 / decimate=1 / interlaced=0 / bluray_compat=0 / constrained_intra=0 / bframes=3 / b_pyramid=2 / b_adapt=2 / b_bias=0 / direct=3 / weightb=1 / open_gop=0 / weightp=2 / keyint=240 / keyint_min=24 / scenecut=40 / intra_refresh=0 / rc_lookahead=50 / rc=2pass / mbtree=1 / bitrate=9438 / ratetol=1.0 / qcomp=0.60 / qpmin=0 / qpmax=69 / qpstep=4 / cplxblur=20.0 / qblur=0.5 / ip_ratio=1.40 / aq=1:1.00
Language : English
Default : Yes
Forced : No

Audio
ID : 2
Format : DTS
Format/Info : Digital Theater Systems
Codec ID : A_DTS
Duration : 1 h 40 min
Bit rate mode : Constant
Bit rate : 1 509 kb/s
Channel(s) : 6 channels
Channel positions : Front: L C R, Side: L R, LFE
Sampling rate : 48.0 kHz
Frame rate : 93.750 FPS (512 SPF)
Bit depth : 24 bits
Compression mode : Lossy
Stream size : 1.06 GiB (14%)
Language : English
Default : Yes
Forced : No

Menu
00:00:00.000 : en:00:00:00.000
00:09:34.292 : en:00:09:34.292
00:21:14.833 : en:00:21:14.833
00:30:14.250 : en:00:30:14.250
00:39:36.250 : en:00:39:36.250
00:50:37.875 : en:00:50:37.875
01:03:21.000 : en:01:03:21.000
01:13:06.542 : en:01:13:06.542
01:21:08.542 : en:01:21:08.542
01:29:25.417 : en:01:29:25.417





1 个附件 售价 大小 下载 时间

The.Artist.2011.1080p.BluRay.x264-FilmHD.torrent 0 金币 77.02K 539 次 3月前

#1楼
发帖时间:2019-06-08 05:48:58   |   回复数:3
911degrees
隐世仙人♂
非常感谢,谢谢分享
3月前 #2楼
liyouchai
隐世仙人♂
谢谢楼主分享资源
3月前 #3楼
jokingcheung
一代宗师
谢谢分享
3月前 #4楼
游客组