conanlcg
超级版主

[2011] [欧美] [喜剧] [BD-1080P] 坏老师/MISS爱教坏 Bad.Teacher.2011.1080p.BluRay.x264-SECTOR7 6.55GB

-->

帖子完整标题:坏老师/MISS爱教坏 Bad.Teacher.2011.1080p.BluRay.x264-SECTOR7 6.55GB




◎译  名 坏老师 / MISS爱教坏(港) / 霸凌女教师(台)
◎片  名 Bad Teacher
◎年  代 2011
◎产  地 美国
◎类  别 喜剧
◎语  言 英语
◎上映日期 2011-06-17
◎IMDb评分 5.7/10 from 181090 users
◎IMDb链接 http://www.imdb.com/title/tt1284575
◎豆瓣评分 5.8/10 from 22087 users
◎豆瓣链接 https://movie.douban.com/subject/3213233/
◎片  长 92分钟
◎导  演 杰克·卡斯丹 Jake Kasdan
◎编  剧 Lee Eisenberg / 吉恩·斯图普尼兹基 Gene Stupnitsky
◎主  演 卡梅隆·迪亚茨 Cameron Diaz
      贾斯汀·丁伯莱克 Justin Timberlake
      杰森·席格尔 Jason Segel
      露茜·彭奇 Lucy Punch
      约翰·迈克尔·辛吉斯 John Michael Higgins
      莫莉·香侬 Molly Shannon
      艾瑞克·斯通斯崔特 Eric Stonestreet


◎标  签 喜剧 | 美国 | CameronDiaz | JustinTimberlake | 美国电影 | 2011 | 爱情 | 坏老师

◎简  介

  伊丽莎白(卡梅隆·迪亚茨 Cameron Diaz 饰)在生活中是个不折不扣的贱人,但同时她还有着另一个身份——人民教师。在被前男友抛弃之后,她不得不重新回到了自己所厌恶的工作岗位上消极怠工。她一直对自己的胸部尺寸不太满意,这一次,她终于下定决心做隆乳手术,但在此之前,她得先凑齐昂贵的手术费用。新人教师斯科特(贾斯汀·汀布莱克 Justin Timberlake 饰)出现在了伊丽莎白的视线里,他的年轻帅气很快就吸引了她的目光,但糟糕的是,她那表面友善内心阴险的同事艾米(露茜·彭奇 Lucy Punch 饰)也向他送去了秋波。斯科特和艾米在一起了,这令伊丽莎白十分沮丧,不过一直在追求伊丽莎白的体育老师罗塞尔(杰森·席格尔 Jason Segel 饰)对此似乎十分高兴。
被横刀夺爱的伊丽莎白将全部精力放在了赚钱上,她得知若班级的考试成绩在州里名列前茅的话,作为班主任的她将获得5700美元的奖金。这一消息振奋了消沉的伊丽莎白,但同时,班上这些不争气的孩子们让她在试卷的答案上动起了歪脑筋。

◎获奖情况

  第13届美国青少年选择奖(2011)
  最佳喜剧片
  最佳喜剧片男演员 贾斯汀·汀布莱克
  最佳喜剧片女演员 卡梅隆·迪亚兹

  第2届豆瓣电影鑫像奖(2012)
  豆渣单元 最渣女演员(外语)(提名) 卡梅隆·迪亚兹



Video
ID : 1
Format : AVC
Format/Info : Advanced Video Codec
Format profile : [email protected]
Format settings, CABAC : Yes
Format settings, ReFrames : 4 frames
Codec ID : V_MPEG4/ISO/AVC
Duration : 1h 37mn
Bit rate : 8 094 Kbps
Width : 1 920 pixels
Height : 1 040 pixels
Display aspect ratio : 1.85:1
Frame rate mode : Constant
Frame rate : 23.976 (24000/1001) fps
Color space : YUV
Chroma subsampling : 4:2:0
Bit depth : 8 bits
Scan type : Progressive
Bits/(Pixel*Frame) : 0.169
Stream size : 5.39 GiB (82%)
Writing library : x264 core 118 r2085 8a62835
Encoding settings : cabac=1 / ref=4 / deblock=1:0:0 / analyse=0x3:0x133 / me=umh / subme=8 / psy=1 / psy_rd=1.00:0.00 / mixed_ref=1 / me_range=16 / chroma_me=1 / trellis=1 / 8x8dct=1 / cqm=0 / deadzone=21,11 / fast_pskip=0 / chroma_qp_offset=-2 / threads=18 / sliced_threads=0 / nr=0 / decimate=1 / interlaced=0 / bluray_compat=0 / constrained_intra=0 / bframes=3 / b_pyramid=2 / b_adapt=1 / b_bias=0 / direct=1 / weightb=1 / open_gop=0 / weightp=2 / keyint=240 / keyint_min=24 / scenecut=40 / intra_refresh=0 / rc_lookahead=40 / rc=2pass / mbtree=1 / bitrate=8094 / ratetol=1.0 / qcomp=0.60 / qpmin=0 / qpmax=69 / qpstep=4 / cplxblur=20.0 / qblur=0.5 / ip_ratio=1.40 / aq=1:1.00
Language : English
Default : No
Forced : No

Audio
ID : 2
Format : DTS
Format/Info : Digital Theater Systems
Mode : 16
Format settings, Endianness : Big
Codec ID : A_DTS
Duration : 1h 37mn
Bit rate mode : Constant
Bit rate : 1 509 Kbps
Channel(s) : 6 channels
Channel positions : Front: L C R, Side: L R, LFE
Sampling rate : 48.0 KHz
Frame rate : 93.750 fps (512 spf)
Bit depth : 24 bits
Compression mode : Lossy
Stream size : 1.03 GiB (16%)
Title : English
Language : English
Default : Yes
Forced : No





1 个附件 售价 大小 下载 时间

Bad.Teacher.2011.1080p.BluRay.x264-SECTOR7.torrent 0 金币 66.02K 728 次 1月前

#1楼
发帖时间:2019-06-08 06:19:06   |   回复数:3
911degrees
隐世仙人♂
非常感谢,谢谢分享
1月前 #2楼
BoatJ
小有名气
好电影,谢谢分享。
1月前 #3楼
liyouchai
隐世仙人♂
谢谢楼主分享资源
1月前 #4楼
游客组