conanlcg
超级版主

[2011] [韩国] [剧情] [BD-1080P] 北村方向 The.Day.He.Arrives.2011.1080p.BluRay.x264-REGRET 6.57GB

-->

帖子完整标题:北村方向 The.Day.He.Arrives.2011.1080p.BluRay.x264-REGRET 6.57GB




◎译  名 北村方向 / The Day He Arrives / 爱情来的那一天(台)
◎片  名 ????
◎年  代 2011
◎产  地 韩国
◎类  别 剧情
◎语  言 韩语
◎上映日期 2011-09-08(韩国)
◎IMDb评分 7.0/10 from 1784 users
◎IMDb链接 http://www.imdb.com/title/tt1922561
◎豆瓣评分 7.6/10 from 4770 users
◎豆瓣链接 https://movie.douban.com/subject/5992865/
◎片  长 79分钟
◎导  演 洪尚秀 Sang-soo Hong
◎编  剧 洪尚秀 Sang-soo Hong
◎主  演 刘俊相 Jun-Sang Yu
      宋宣美 Seon-mi Song
      高贤贞 Hyun-jung Go
      金意成 Eui-sung Kim
      金甫京 Bo-kyeong Kim


◎标  签 洪尚秀 | 韩国 | 韩国电影 | 2011 | 文艺 | 黑白 | 剧情 | 2010s

◎简  介

  首尔电影学院教授兼导演尚俊(刘俊相 饰)近来闲暇无事,决定去北村会老友电影评论家杨河(金相中 饰)。尚俊原先只是一个名气一般的导演,转行做教授后自感思想产生了偏执,对以往所拍的东西不断进行着反思。最近他已停止了拍片,他需要和各行业人物接触,以获取下一部戏的灵感,当然,不少的灵感来自自身的体验,这包括与学生们的交谈以及情妇带给他的两性感受。杨河性格孤癖且自闭,但人很坦率,平日除了做评论发稿件,他几乎足不出户,更谈不上有什么朋友,尚俊是他为数不多的故交中的一个。这次两人的会面会碰撞出什么火花......
本片曾入围戛纳电影节

◎获奖情况

  第64届戛纳电影节(2011)
  一种关注单元 一种关注大奖(提名) 洪尚秀



Video
ID : 1
Format : AVC
Format/Info : Advanced Video Codec
Format profile : [email protected]
Format settings : CABAC / 4 Ref Frames
Format settings, CABAC : Yes
Format settings, ReFrames : 4 frames
Codec ID : V_MPEG4/ISO/AVC
Duration : 1 h 18 min
Bit rate : 10.4 Mb/s
Width : 1 920 pixels
Height : 1 080 pixels
Display aspect ratio : 16:9
Frame rate mode : Constant
Frame rate : 23.976 (24000/1001) FPS
Color space : YUV
Chroma subsampling : 4:2:0
Bit depth : 8 bits
Scan type : Progressive
Bits/(Pixel*Frame) : 0.209
Stream size : 5.72 GiB (87%)
Writing library : x264 core 157 r2935 545de2f
Encoding settings : cabac=1 / ref=4 / deblock=1:-3:-3 / analyse=0x3:0x133 / me=umh / subme=9 / psy=1 / psy_rd=1.00:0.00 / mixed_ref=1 / me_range=16 / chroma_me=1 / trellis=2 / 8x8dct=1 / cqm=0 / deadzone=21,11 / fast_pskip=0 / chroma_qp_offset=-2 / threads=24 / lookahead_threads=2 / sliced_threads=0 / nr=0 / decimate=1 / interlaced=0 / bluray_compat=0 / constrained_intra=0 / bframes=3 / b_pyramid=2 / b_adapt=1 / b_bias=0 / direct=3 / weightb=1 / open_gop=0 / weightp=2 / keyint=240 / keyint_min=24 / scenecut=40 / intra_refresh=0 / rc_lookahead=50 / rc=2pass / mbtree=1 / bitrate=10382 / ratetol=1.0 / qcomp=0.60 / qpmin=0 / qpmax=69 / qpstep=4 / cplxblur=20.0 / qblur=0.5 / ip_ratio=1.40 / aq=1:1.00
Language : English
Default : Yes
Forced : No

Audio
ID : 2
Format : DTS
Format/Info : Digital Theater Systems
Codec ID : A_DTS
Duration : 1 h 18 min
Bit rate mode : Constant
Bit rate : 1 509 kb/s
Channel(s) : 2 channels
Channel layout : L R
Sampling rate : 48.0 kHz
Frame rate : 93.750 FPS (512 SPF)
Bit depth : 24 bits
Compression mode : Lossy
Stream size : 852 MiB (13%)
Language : Korean
Default : Yes
Forced : No

Text
ID : 3
Format : UTF-8
Codec ID : S_TEXT/UTF8
Codec ID/Info : UTF-8 Plain Text
Duration : 1 h 17 min
Bit rate : 47 b/s
Count of elements : 1005
Stream size : 26.7 KiB (0%)
Title : English
Language : English
Default : Yes
Forced : Yes

Menu
00:00:00.000 : en:00:00:00.000
00:10:52.068 : en:00:10:52.068
00:17:21.624 : en:00:17:21.624
00:24:23.170 : en:00:24:23.170
00:33:40.310 : en:00:33:40.310
00:39:34.205 : en:00:39:34.205
00:47:31.807 : en:00:47:31.807
00:54:28.223 : en:00:54:28.223
01:06:26.107 : en:01:06:26.107
01:12:21.462 : en:01:12:21.462
01:16:12.276 : en:01:16:12.276
01:17:56.380 : en:01:17:56.380





1 个附件 售价 大小 下载 时间

The.Day.He.Arrives.2011.1080p.BluRay.x264-REGRET.torrent 0 金币 33.66K 476 次 1月前

#1楼
发帖时间:2019-06-09 02:14:31   |   回复数:3
911degrees
隐世仙人♂
非常感谢,谢谢分享
1月前 #2楼
liyouchai
隐世仙人♂
谢谢楼主分享资源
1月前 #3楼
tanchoohoon
武林盟主
感谢楼主的无私分享
1月前 #4楼
游客组