conanlcg
超级版主

[2011] [其他] [剧情] [BD-1080P] 格斗女孩 Kriegerin.2011.GERMAN.1080p.BluRay.x264.DTS-CtrlHD 7.01GB

-->

帖子完整标题:格斗女孩 Kriegerin.2011.GERMAN.1080p.BluRay.x264.DTS-CtrlHD 7.01GB




◎译  名 格斗女孩
◎片  名 Kriegerin
◎年  代 2011
◎产  地 德国
◎类  别 剧情
◎语  言 德语
◎上映日期 2012-01-19(德国)
◎IMDb评分 6.8/10 from 4346 users
◎IMDb链接 http://www.imdb.com/title/tt1890373
◎豆瓣评分 6.7/10 from 1084 users
◎豆瓣链接 https://movie.douban.com/subject/6886464/
◎导  演 David Wnendt
◎编  剧 David Wnendt
◎主  演 Alina Levshin
      Jella Haase
      Gerdy Zint


◎标  签 德国 | 新纳粹 | 德国电影 | 犯罪 | 剧情 | 青少年 | 青春 | 2011

◎简  介

  20岁的玛丽莎(艾琳娜·莱辛 Alina Levshin 饰)是一个愤世嫉俗、特立独行的德国女孩,平日里他与一群新纳粹伙伴聚在一起,仇恨一切异族、外国人、警察乃至所有看不顺眼的人。破败的家庭让她很难体会到温暖,而充斥着性、暴力、酒精的团体却让她有着强烈归属感。可是,在于来自阿富汗的少年拉索(Sayed Ahmad 饰)三番五次的接触中,玛丽莎充满愤怒的心悄悄发生了转变。与此同时,年仅14岁的丝雯嘉(婕拉·海斯 Jella Haase 饰)进入叛逆期,正试图从乖乖女变成一个挑战一切禁忌的个性少女,她加入了玛丽莎所在的团体,与这个酷劲十足的前辈共同经历着人生最重要的蜕变……
本片荣获2011年巴伐利亚电影节最佳导演奖和最佳青年演员奖(Jella Haase);2012年德国电影节最佳女主角奖(Alina Levshin)和最佳剧本奖。

◎获奖情况

  第62届德国电影奖(2012)
  最佳影片铜奖 Eva-Marie Martens / René Frotscher / Alexander Martens
  最佳女主角 艾琳娜·莱辛
  最佳剧本 大卫·韦恩特



Video
ID : 1
Format : AVC
Format/Info : Advanced Video Codec
Format profile : [email protected]
Format settings : CABAC / 5 Ref Frames
Format settings, CABAC : Yes
Format settings, ReFrames : 5 frames
Codec ID : V_MPEG4/ISO/AVC
Duration : 1 h 46 min
Bit rate : 7 941 kb/s
Width : 1 916 pixels
Height : 816 pixels
Display aspect ratio : 2.35:1
Frame rate mode : Constant
Frame rate : 23.976 (24000/1001) FPS
Color space : YUV
Chroma subsampling : 4:2:0
Bit depth : 8 bits
Scan type : Progressive
Bits/(Pixel*Frame) : 0.212
Stream size : 5.89 GiB (84%)
Writing library : x264 core 128 r2216kMod 198a7ea
Encoding settings : cabac=1 / ref=5 / deblock=1:-3:-3 / analyse=0x3:0x113 / me=umh / subme=9 / psy=1 / fade_compensate=0.00 / psy_rd=0.90:0.00 / mixed_ref=1 / me_range=16 / chroma_me=1 / trellis=2 / 8x8dct=1 / cqm=0 / deadzone=21,11 / fast_pskip=0 / chroma_qp_offset=-2 / threads=6 / lookahead_threads=1 / sliced_threads=0 / nr=0 / decimate=0 / interlaced=0 / bluray_compat=0 / constrained_intra=0 / bframes=8 / b_pyramid=2 / b_adapt=2 / b_bias=0 / direct=3 / weightb=1 / open_gop=0 / weightp=2 / keyint=250 / keyint_min=23 / scenecut=40 / intra_refresh=0 / rc_lookahead=40 / rc=crf / mbtree=1 / crf=18.0000 / qcomp=0.80 / qpmin=0 / qpmax=69 / qpstep=4 / ip_ratio=1.20 / aq=1:0.95
Language : English
Default : No
Forced : No

Audio
ID : 2
Format : DTS
Format/Info : Digital Theater Systems
Codec ID : A_DTS
Duration : 1 h 46 min
Bit rate mode : Constant
Bit rate : 1 509 kb/s
Channel(s) : 6 channels
Channel layout : C L R Ls Rs LFE
Sampling rate : 48.0 kHz
Frame rate : 93.750 FPS (512 SPF)
Bit depth : 24 bits
Compression mode : Lossy
Stream size : 1.12 GiB (16%)
Language : German
Default : Yes
Forced : No

Text #1
ID : 3
Format : UTF-8
Codec ID : S_TEXT/UTF8
Codec ID/Info : UTF-8 Plain Text
Duration : 1 h 42 min
Bit rate : 24 b/s
Count of elements : 573
Stream size : 18.7 KiB (0%)
Language : English
Default : Yes
Forced : Yes

Text #2
ID : 4
Format : UTF-8
Codec ID : S_TEXT/UTF8
Codec ID/Info : UTF-8 Plain Text
Duration : 1 h 42 min
Bit rate : 33 b/s
Count of elements : 868
Stream size : 25.1 KiB (0%)
Language : German
Default : No
Forced : No

Menu
00:00:00.000 : en:Chapter 1
00:07:50.970 : en:Chapter 2
00:15:48.698 : en:Chapter 3
00:23:10.514 : en:Chapter 4
00:33:18.163 : en:Chapter 5
00:41:20.353 : en:Chapter 6
00:50:24.480 : en:Chapter 7
01:03:07.242 : en:Chapter 8
01:09:40.009 : en:Chapter 9
01:18:59.526 : en:Chapter 10
01:26:15.712 : en:Chapter 11
01:35:39.567 : en:Chapter 12





1 个附件 售价 大小 下载 时间

Kriegerin.2011.GERMAN.1080p.BluRay.x264.DTS-CtrlHD.torrent 0 金币 35.60K 511 次 3月前

#1楼
发帖时间:2019-06-09 02:40:38   |   回复数:3
911degrees
隐世仙人♂
非常感谢,谢谢分享
3月前 #2楼
liyouchai
隐世仙人♂
谢谢楼主分享资源
3月前 #3楼
tanchoohoon
武林盟主
感谢楼主的无私分享
3月前 #4楼
游客组